<?xml version="1.0" standalone="no"?>
<!DOCTYPE svg PUBLIC "-//W3C//DTD SVG 1.1//EN" "http://www.w3.org/Graphics/SVG/1.1/DTD/svg11.dtd" >
<svg xmlns="http://www.w3.org/2000/svg" xmlns:xlink="http://www.w3.org/1999/xlink" version="1.1">
<metadata>
Created by FontForge 20170812 at Wed May 27 07:31:27 2020
 By www-data
Copyright (C) 2019 Akhmad Reza Fauzi. All rights reserved
</metadata>
<defs>
<font id="BarlettaRegular" horiz-adv-x="523" >
  <font-face 
    font-family="Barletta"
    font-weight="400"
    font-stretch="normal"
    units-per-em="1000"
    panose-1="0 0 0 0 0 0 0 0 0 0"
    ascent="800"
    descent="-200"
    x-height="743.347"
    cap-height="744.128"
    bbox="23.5059 -190.311 850.831 966.172"
    underline-thickness="50"
    underline-position="-100"
    unicode-range="U+000A-2122"
  />
<missing-glyph horiz-adv-x="527" 
d="M50 700h427v-700h-427v700zM78 680l185 -309l186 309h-371zM251 350l-180 300v-601zM264 329l-185 -308h370zM276 350l181 -303v605z" />
    <glyph glyph-name=".notdef" horiz-adv-x="527" 
d="M50 700h427v-700h-427v700zM78 680l185 -309l186 309h-371zM251 350l-180 300v-601zM264 329l-185 -308h370zM276 350l181 -303v605z" />
    <glyph glyph-name=".null" horiz-adv-x="0" 
 />
    <glyph glyph-name=".null" horiz-adv-x="0" 
 />
    <glyph glyph-name="controlLF" unicode="&#xa;" horiz-adv-x="0" 
 />
    <glyph glyph-name="controlCR" unicode="&#xd;" horiz-adv-x="0" 
 />
    <glyph glyph-name="space" unicode=" " horiz-adv-x="284" 
 />
    <glyph glyph-name="exclam" unicode="!" horiz-adv-x="306" 
d="M223.172 299.667c0 -67.9785 50.1924 -99.0371 50.1924 -99.084h-0.0234375v-30.5186h-240.409v30.5186h-0.0234375s50.1924 31.082 50.1924 99.0684v35.666l-37.1309 37.1309l37.1309 37.1309v205.558c0 67.9785 -50.1924 99.0605 -50.1924 99.0605h0.0234375v30.5186
h240.409v-30.4951h0.0234375s-50.1924 -31.082 -50.1924 -99.0605v-205.558l37.1309 -37.1309l-37.1309 -37.1309v-35.6738zM153.148 -33.9658c-46.4629 0 -84.1348 37.6641 -84.1348 84.127s37.6719 84.1348 84.1348 84.1348s84.127 -37.6719 84.127 -84.1348
s-37.6641 -84.127 -84.127 -84.127z" />
    <glyph glyph-name="quotedbl" unicode="&#x22;" horiz-adv-x="428" 
d="M394.271 664.768c11.9092 -122.488 -134.382 -178.621 -134.405 -178.621l-5.77441 14.1191c17.2686 20.2148 40.5938 51.4619 -1.04297 93.083c-18.7344 18.6875 -28.9121 39.0908 -28.9121 64.6416c0 45.915 37.46 85.0439 85.0674 85.0439
c44.2461 0 79.9746 -32.3125 85.0674 -78.2666zM117.977 743.033c44.2461 0 79.9834 -32.3135 85.0684 -78.2676c11.9092 -122.465 -134.375 -178.62 -134.375 -178.62l-5.78223 14.1191c17.2764 20.2148 40.5938 51.4619 -1.04297 93.083
c-18.7344 18.6875 -28.9121 39.0908 -28.9121 64.6416c0 45.915 37.4443 85.0439 85.0439 85.0439z" />
    <glyph glyph-name="numbersign" unicode="#" horiz-adv-x="693" 
d="M596.467 389.373c0 0 -13.7744 36.1445 -62.7529 36.168h-20.9434l-25.2139 -105.761h20.9434c48.9785 0 79.998 36.168 79.998 36.168v-0.015625h21.9854l-41.3232 -173.222h-21.9932v-0.0234375s-13.7666 36.1758 -62.7451 36.1758h-20.9434l-5.00684 -20.9434
c-11.6982 -48.9863 19.1338 -71.3643 19.1338 -71.3643h-0.0234375l-5.23438 -21.9854h-173.222l5.23438 21.9854h-0.0234375s41.5107 22.3779 53.1934 71.3643l5.00684 20.9434h-105.761l-5.00684 -20.9434c-11.6982 -48.9863 19.1338 -71.3643 19.1338 -71.3643
h-0.0234375l-5.23438 -21.9854h-173.222l5.23438 21.9854h-0.0234375s41.5107 22.3779 53.1934 71.3643l5.00684 20.9434h-20.9434c-48.9785 0 -79.998 -36.1758 -79.998 -36.1758v0.0234375h-21.9854l41.3232 173.222h21.9854v0.015625s13.7666 -36.168 62.7451 -36.168
h20.9434l25.2217 105.761h-20.9434c-48.9785 0 -79.998 -36.168 -79.998 -36.168v0.015625h-21.9854l41.3232 173.222h21.9854v0.0234375s13.7666 -36.1758 62.7529 -36.1758h20.9434l5.00684 20.9434c11.6982 48.9863 -19.1338 71.3643 -19.1338 71.3643h0.0234375
l5.23438 21.9854h173.222l-5.23438 -21.9854h0.015625s-41.5107 -22.3779 -53.1855 -71.3643l-5.00684 -20.9434h105.761l5.00684 20.9434c11.6982 48.9863 -19.1338 71.3643 -19.1338 71.3643h0.0234375l5.23438 21.9854h173.222l-5.23438 -21.9854h0.0234375
s-41.5186 -22.3779 -53.1934 -71.3643l-5.00684 -20.9434h20.9434c48.9785 0 79.998 36.1758 79.998 36.1758v-0.0234375h21.9854l-41.3232 -173.222zM386.631 319.78l25.2217 105.761h-105.761l-25.2217 -105.761h105.761z" />
    <glyph glyph-name="dollar" unicode="$" horiz-adv-x="505" 
d="M453.277 438.077l-140.073 84.8389v44.6768c0 30.6436 -20.3008 46.0869 -60.8721 46.3145h-0.979492c-40.2422 0 -60.3711 -15.4355 -60.3711 -46.3145v-48.6025c0 -30.4082 43.7207 -67.665 131.146 -111.77c87.4258 -43.8613 131.146 -96.4277 131.146 -157.715
v-95.6055c0 -77.4746 -43.8066 -136.255 -131.271 -155.969c13.0381 -42.0518 44.3242 -62 44.3242 -62h-0.015625v-30.5186h-228.461v30.5186s31.3721 20.0117 44.3867 62.1885c-87.5039 19.9014 -131.311 78.5801 -131.311 155.781v164.109l140.056 -80.8604v-60.6367
c0 -30.8711 20.4658 -46.3066 61.3662 -46.3066c40.5791 0 60.8721 15.4355 60.8721 46.3066v64.625c0 32.9785 -43.7207 71.5049 -131.146 115.609c-87.4258 43.8691 -131.146 97.2432 -131.146 160.16v73.3223c0 77.0596 43.5801 135.824 130.583 155.741
c-13.4766 40.4453 -43.6582 59.5791 -43.6582 59.5791h0.0234375v30.5186h228.477v-30.5186s-30.2285 -19.1494 -43.6816 -59.6416c87.0107 -19.9795 130.606 -78.7051 130.606 -155.679v-152.153z" />
    <glyph glyph-name="percent" unicode="%" horiz-adv-x="699" 
d="M666.201 744.139l-16.1094 -30.5186h0.0234375s-66.6074 -31.082 -102.485 -99.0684l-108.534 -205.55l17.5195 -37.1309l-56.7197 -37.1309l-108.346 -205.221c-35.9014 -67.9629 -2.10742 -99.0449 -2.10742 -99.0449h-0.015625l-16.1094 -30.5186h-240.409
l16.1016 30.5186h-0.015625s66.5996 31.0586 102.485 99.0449l108.346 205.221l-17.5273 37.1309l56.7197 37.1309l108.534 205.55c35.9014 67.9863 2.10742 99.0684 2.10742 99.0684h0.0234375l16.1016 30.5186h240.417zM195.325 545.608
c-46.4629 0 -84.127 37.6719 -84.127 84.1348s37.6641 84.127 84.127 84.127s84.127 -37.6641 84.127 -84.127s-37.6641 -84.1348 -84.127 -84.1348zM503.619 30.4951c-46.4629 0 -84.1348 37.6641 -84.1348 84.127s37.6719 84.127 84.1348 84.127
s84.127 -37.6641 84.127 -84.127s-37.6641 -84.127 -84.127 -84.127z" />
    <glyph glyph-name="ampersand" unicode="&#x26;" horiz-adv-x="592" 
d="M510.624 496.09l30.4971 0.000976562v-240.37h-30.5186v-0.0234375s-18.3584 29.2256 -57.3232 43.0391v-307.957h-139.891v4.08203c-18.5615 -2.64844 -38.792 -4.08203 -61.0518 -4.08203h-0.226562h-0.234375c-133.943 0 -200.942 47.748 -200.942 143.456v147.71
c0 27.0547 9.53516 49.2441 28.1992 66.7246l-28.1992 28.207l28.2852 28.2852c-18.7344 17.5195 -28.2852 39.7559 -28.2852 66.874v137.532c0 95.8955 67.0225 143.832 200.942 143.832h0.234375h0.226562c133.943 0 200.942 -47.9365 200.942 -143.832v-56.6094h-140.196
c-0.0234375 9.87988 -0.0625 17.1201 -0.0625 17.3945c-1.23828 28.873 -21.4297 43.4941 -60.8955 43.5566c-39.4658 -0.0625 -59.6572 -14.6836 -60.8877 -43.5566c-0.0234375 -0.94043 -0.227539 -78.5176 -0.227539 -78.5176c0 -25.2607 20.4814 -45.75 45.7422 -45.75
h1.81738v-0.250977h173.198l-0.188477 0.0859375c67.9629 0 99.0449 50.1924 99.0449 50.1689zM313.123 174.994c0.0234375 0.517578 0.141602 85.2949 0.141602 85.2949c0 25.0098 -20.082 45.248 -44.9902 45.6631h-32.2734
c-24.9082 -0.415039 -44.9902 -20.6533 -44.9902 -45.6631c0 0 0.125 -84.7773 0.125 -85.2949c0.681641 -29.6016 20.834 -44.5986 60.7627 -44.7871h0.454102c39.9287 0.188477 60.0811 15.209 60.7705 44.7871z" />
    <glyph glyph-name="quotesingle" unicode="'" horiz-adv-x="237" 
d="M203.051 664.768c11.9092 -122.488 -134.382 -178.621 -134.382 -178.621l-5.78223 14.1191c17.2764 20.2148 40.5781 51.4619 -1.04297 93.083c-18.7266 18.6875 -28.9121 39.0908 -28.9121 64.6416c0 45.915 37.4678 85.0439 85.0674 85.0439
c44.2227 0 79.959 -32.3125 85.0518 -78.2666z" />
    <glyph glyph-name="parenleft" unicode="(" horiz-adv-x="440" 
d="M224.802 742.72c-8.14062 0 -14.707 -6.59668 -14.6836 -14.7061v-713.314c0 -8.10938 6.58984 -14.707 14.6992 -14.707h52.9268c67.9629 0 99.0449 50.1924 99.0449 50.1924l30.5186 -0.0234375v-240.409h-30.5186s-31.082 50.1689 -99.0684 50.1689h-67.626
c-77.3496 0 -140.056 62.7061 -140.056 140.056v335.365l-37.1309 37.1309l37.1309 37.1309v333.116c0 77.3496 62.7061 140.056 140.056 140.056h67.626c67.9629 0 99.0449 50.1846 99.0449 50.1846l30.542 -0.015625v-240.394h-30.5186s-31.082 50.1689 -99.0684 50.1689
h-52.9189z" />
    <glyph glyph-name="parenright" unicode=")" horiz-adv-x="440" 
d="M370.177 409.604l37.1699 -37.1318l-37.1309 -37.1309v-335.412c0 -77.3418 -62.7061 -140.048 -140.056 -140.048h-67.626c-67.9863 0 -99.0684 -50.1689 -99.0684 -50.1689h-30.5186v240.409l30.5186 0.0234375s31.0664 -50.1924 99.0449 -50.1924h52.9189
c8.11719 0 14.707 6.58984 14.707 14.707v713.33c0 8.11719 -6.58984 14.707 -14.707 14.707h-52.9189c-67.9785 0 -99.0605 -50.1689 -99.0605 -50.1689h-30.5186v240.417l30.5186 0.015625s31.0586 -50.1846 99.0371 -50.1846h67.6338
c77.3496 0 140.056 -62.7061 140.056 -140.056v-333.116z" />
    <glyph glyph-name="asterisk" unicode="*" horiz-adv-x="520" 
d="M443.139 624.564c26.4365 -10.9307 44.1797 -37.1299 44.2266 -65.8066c0 -8.2666 -1.44141 -16.4854 -4.27734 -24.2422c-11.165 -30.416 -35.7129 -43.7441 -64.876 -48.0615c-43.6191 -6.44824 -97.541 7.30273 -132.235 14.2061
c11.1025 -2.18652 22.9258 -9.97461 32.751 -15.3965c43.4775 -23.9834 109.349 -51.916 109.349 -110.704c0 -39.2393 -31.8115 -71.0508 -71.0508 -71.0508c-49.6211 0 -72.1709 47.1445 -82.1455 88.9688c-6.90332 28.998 -11.0166 58.6621 -14.4561 88.2168
c-4.15234 -33.002 -8.94727 -66.2939 -17.832 -98.3955c-6.82422 -24.6182 -18.083 -52.0498 -40.1162 -66.835c-11.5723 -7.76465 -25.3232 -11.9326 -39.2539 -11.9326c-39.2393 0 -71.0508 31.8115 -71.0508 71.0508c0 32.375 24.5479 58.5527 49.7461 75.5557
c28.5205 19.251 60.0811 34.1689 91.3516 48.3115c-11.2275 -5.09277 -24.4297 -5.44531 -36.4883 -7.2002c-13.2646 -1.93555 -26.5137 -4.14551 -39.8418 -5.67383c-26.2637 -3.00098 -53.9844 -3.54199 -78.6182 7.42773
c-26.5146 11.8076 -45.4131 36.0889 -45.4131 65.7686c0 39.2393 31.8115 71.0508 71.0508 71.0508c28.8496 0 54.7998 -19.7295 75.5947 -37.6953c22.2363 -19.1885 42.7021 -40.4688 62.5801 -62.0547c-3.31445 6.00977 -6.58984 12.0586 -9.80273 18.1309
c-24.5322 46.2441 -69.4678 121.321 -26.5537 170.464c13.4141 15.373 33.1436 24.3447 53.5469 24.3447c16.54 0 32.79 -5.88477 45.4912 -16.4785c11.3066 -9.44922 19.5498 -22.3613 23.2637 -36.6289c4.52832 -17.4414 0.125 -35.1494 -4.5918 -52.1523
c-10.4912 -37.8447 -29.5547 -72.4922 -48.6416 -106.552c3.65137 6.52637 9.92773 10.9922 14.9971 16.2891c36.6689 38.3379 93.7881 101.693 153.297 77.0752z" />
    <glyph glyph-name="plus" unicode="+" horiz-adv-x="622" 
d="M558.85 492.25h30.5186v-240.409h-30.5186v-0.0234375s-31.0586 50.1924 -99.0371 50.1924h-78.627v-78.627c0 -67.9785 50.1924 -99.0605 50.1924 -99.0605h-0.0234375v-30.5186h-240.409v30.5186h-0.0234375s50.1924 31.082 50.1924 99.0605v78.627h-78.627
c-67.9785 0 -99.0605 -50.1924 -99.0605 -50.1924v0.0234375h-30.5186v240.409h30.5186v0.0234375s31.082 -50.1924 99.0605 -50.1924h78.627v78.627c0 67.9551 -50.1924 99.0371 -50.1924 99.0371h0.0234375v30.5186h240.409v-30.5186h0.0234375
s-50.1924 -31.0586 -50.1924 -99.0371v-78.627h78.627c67.9629 0 99.0371 50.1924 99.0371 50.1689z" />
    <glyph glyph-name="comma" unicode="," horiz-adv-x="237" 
d="M203.043 92.5107c11.9092 -122.473 -134.382 -178.629 -134.397 -178.629l-5.78223 14.127c17.2764 20.2148 40.5938 51.4385 -1.04297 93.0752c-18.7344 18.6875 -28.9121 39.1143 -28.9121 64.6494c0 45.9307 37.4678 85.0674 85.0674 85.0674
c44.2461 0 79.9746 -32.3359 85.0674 -78.29z" />
    <glyph glyph-name="hyphen" unicode="-" horiz-adv-x="622" 
d="M558.834 492.25h30.5186v-240.409h-30.5186v-0.0234375s-31.082 50.1924 -99.0684 50.1924h-297.277c-67.9785 0 -99.0605 -50.1924 -99.0605 -50.1924v0.0234375h-30.5186v240.409h30.5186v0.0234375s31.082 -50.1924 99.0605 -50.1924h297.277
c67.9863 0 99.0684 50.1924 99.0684 50.1689z" />
    <glyph glyph-name="period" unicode="." horiz-adv-x="234" 
d="M117.035 2.53906c-46.4629 0 -84.127 37.6641 -84.127 84.127s37.6641 84.1348 84.127 84.1348s84.127 -37.6719 84.127 -84.1348s-37.6641 -84.127 -84.127 -84.127z" />
    <glyph glyph-name="slash" unicode="/" horiz-adv-x="699" 
d="M666.178 744.139l-16.1016 -30.542h0.015625s-66.5996 -31.082 -102.485 -99.0605l-108.534 -205.558l17.5273 -37.1309l-56.7197 -37.1309l-108.33 -205.197c-35.9014 -67.9629 -2.10742 -99.0449 -2.10742 -99.0449h-0.015625l-16.1094 -30.5186h-240.409
l16.1016 30.5186h-0.015625s66.5996 31.0586 102.485 99.0449l108.346 205.221l-17.5273 37.1309l56.7197 37.1309l108.519 205.55c35.9014 67.9863 2.10742 99.0684 2.10742 99.0684h0.015625l16.1094 30.5186h240.409z" />
    <glyph glyph-name="zero" unicode="0" horiz-adv-x="543" 
d="M472.364 409.017l37.1533 -37.1299l-37.1309 -37.1309v-200.238c0 -95.6455 -67.1484 -143.582 -201.421 -143.81c-133.943 0 -200.927 47.9365 -200.927 143.809v200.238l-37.1309 37.1309l37.1309 37.1309v200.92c0 95.6455 66.96 143.456 200.928 143.456
c134.272 0 201.397 -47.8105 201.397 -143.456v-200.92zM332.331 176.507l-0.0234375 391.089c0 30.6436 -20.293 46.0791 -60.8643 46.3066h-0.979492c-40.2422 0 -60.3711 -15.4355 -60.3711 -46.3066v-391.089c0 -30.8711 20.293 -46.3066 60.8721 -46.3066
c40.9004 0 61.3662 15.4355 61.3662 46.3066z" />
    <glyph glyph-name="one" unicode="1" horiz-adv-x="370" 
d="M286.692 129.532c0 -67.9629 50.1924 -99.0449 50.1924 -99.0449v-30.542h-240.417v30.5186h-0.0234375s50.1924 31.0664 50.1924 99.0449v205.221l-37.1309 37.1309l37.1309 37.1309v194.314c-47.8496 0 -83.1865 -49.2129 -83.1865 -49.2129l0.744141 4.75586
l-0.767578 -4.75586h-30.5186l30.5186 190.036h30.5186l-0.0234375 -0.101562h192.771v-335.036l37.1309 -37.1309l-37.1309 -37.1309v-205.197z" />
    <glyph glyph-name="two" unicode="2" horiz-adv-x="511" 
d="M433.062 190.005l30.4805 -0.00292969l-30.5186 -190.036h-385.871v192.474c0 61.5225 43.5566 141.975 130.646 185.845c2.46777 1.20703 4.52832 2.39844 6.91016 3.61328l13.3438 47.5996l46.8779 -13.1396c42.4512 27.7451 64.2881 52.3555 64.5156 73.6982v77.5381
c0 30.6436 -20.293 46.0791 -60.8643 46.3066h-0.979492c-40.2422 0 -60.3711 -15.4355 -60.3711 -46.3066v-44.6846l-140.056 -84.8398v171.866c0 95.6455 66.9834 143.456 200.919 143.456c134.28 0 201.405 -47.8105 201.405 -143.472v-156.204
c0 -51.5479 -30.04 -96.6865 -89.1338 -135.651l-11.9092 -45.2012l-46.2441 12.1758c-76.3076 -40.3203 -114.982 -76.0488 -114.982 -107.068v-38.1582h146.771c62.541 0 99.0225 50.1689 99.0225 50.1689z" />
    <glyph glyph-name="three" unicode="3" horiz-adv-x="492" 
d="M444.776 609.92l-0.0253906 -147.774c0 -27.0547 -9.53516 -49.2285 -28.1992 -66.7324l28.1992 -28.207l-28.2852 -28.2852c18.7344 -17.5195 28.2852 -39.7559 28.2852 -66.874v-137.532c0 -95.8955 -67.0225 -143.832 -200.942 -143.832
c-134.296 0.274414 -201.405 48.124 -201.405 143.832v40.6963l140.032 85.6084v-84.3779c0 -30.832 20.4658 -46.2832 61.374 -46.2832c40.5322 0 60.8887 15.4512 60.8887 46.2832v75.8066c0 25.2607 -20.4814 45.75 -45.7422 45.75h-59.2266v140.056h59.2266
c25.2607 0 45.7422 20.4814 45.7422 45.7422v83.8135c0 30.832 -20.168 46.291 -60.4258 46.291h-0.924805c-40.6104 -0.211914 -60.8877 -15.6475 -60.8877 -46.291v-53.9619l-140.032 -84.8398v181.112c0 95.7002 67.1094 143.448 201.406 143.448
c133.936 0 200.942 -47.748 200.942 -143.448z" />
    <glyph glyph-name="four" unicode="4" horiz-adv-x="532" 
d="M448.255 129.532c0 -67.9629 50.1846 -99.0449 50.1846 -99.0449v-30.4951h-240.409v30.5186h-0.0234375s50.1455 31.0586 50.1924 98.9746v36.4023h-275.292v138.159h0.461914l220.03 439.981h194.855v-337.206l34.9375 -34.9609l-34.9375 -34.9375v-207.392z
M184.355 304.047h123.844v247.61z" />
    <glyph glyph-name="five" unicode="5" horiz-adv-x="516" 
d="M440.71 407.535l41.2607 -35.6338l-37.1309 -37.1309v-200.355c0 -95.6055 -67.1953 -143.416 -201.492 -143.683c-133.936 0 -200.942 47.8887 -200.942 143.683v43.7207h140.142v-1.85742c0 -30.793 20.2695 -46.2285 60.8018 -46.2285
c40.9082 0 61.374 15.4355 61.374 46.2285v151.636c0 30.5967 -20.2773 45.9541 -60.8096 46.2207h-1.01855c-40.2656 0 -60.3477 -15.4355 -60.3477 -46.2207v-10.2646h-140.142l26.2637 416.429v9.90332h376.132v-139.507h-244.946l-6.11133 -93.5137
c15.3574 1.66895 31.835 2.49902 49.6055 2.49902c115.421 0 181.111 -35.3994 197.361 -105.925z" />
    <glyph glyph-name="six" unicode="6" horiz-adv-x="539" 
d="M472.474 526.977l-140.142 -0.201172v40.8369c0 30.832 -20.2773 46.291 -60.8096 46.291c-40.9004 0 -61.3662 -15.459 -61.3662 -46.291v-100.816c18.499 2.63281 38.6748 4.07422 60.8486 4.07422c134.272 0 201.421 -47.834 201.421 -143.455v-192.873
c0 -95.6455 -67.1484 -143.582 -201.421 -143.81c-133.943 0 -200.927 47.9365 -200.927 143.809v192.873c0 0.791016 0.109375 1.49609 0.109375 2.29492h-0.148438v5.0459l-37.1309 37.1309l37.1309 37.1309v200.528c0 95.7002 67.1875 143.558 201.484 143.824
c133.943 0 200.95 -47.9365 200.95 -143.824v-82.5684zM270.527 331.356c-40.2656 0 -60.3945 -15.4355 -60.3945 -46.3145v-108.534c0 -30.8711 20.3008 -46.3066 60.8721 -46.3066c40.9082 0 61.3662 15.4355 61.3662 46.3066v108.534
c0 30.6436 -20.293 46.0869 -60.8643 46.3145h-0.979492z" />
    <glyph glyph-name="seven" unicode="7" horiz-adv-x="512" 
d="M478.061 743.981l0.0400391 -141.615l-63.8496 -198.671l21.6328 -31.835l-42.1377 -31.9365l-67.9863 -211.56c-21.4375 -68.9268 27.2432 -97.8779 27.2432 -97.8779v-30.5186h-240.409v30.5186s41.1191 11.0791 69.1689 99.0459l0.046875 -0.109375l67.2734 210.463
l-21.7354 31.9756l42.1934 31.999l63.959 200.05h-176.936c-60.1201 0 -93.1143 -49.8164 -93.1143 -49.8164h-30.542l30.5186 190.036z" />
    <glyph glyph-name="eight" unicode="8" horiz-adv-x="469" 
d="M234.313 753.368c133.92 0 200.942 -47.9365 200.942 -143.824v-137.532c0 -27.1182 -9.55078 -49.3779 -28.2852 -66.874l28.2852 -28.293l-28.1992 -28.1992c18.6641 -17.4805 28.1992 -39.6777 28.1992 -66.7324v-147.71
c0 -95.6846 -67.0225 -143.456 -200.942 -143.456h-0.226562h-0.234375c-133.943 0 -200.942 47.748 -200.942 143.456v147.71c0 27.0547 9.53516 49.252 28.1992 66.7324l-28.1992 28.1992l28.2852 28.293c-18.7344 17.5195 -28.2852 39.7559 -28.2852 66.874v137.532
c0 95.8877 67.0225 143.824 200.942 143.824h0.234375h0.226562zM234.313 130.198c39.9287 0.188477 60.0742 15.209 60.8105 44.7871c0 0.525391 0.117188 85.2949 0.117188 85.2949c0 25.2607 -20.4814 45.75 -45.7422 45.75h-30.793
c-25.2607 0 -45.7422 -20.4893 -45.7422 -45.75c0 0 0.101562 -84.7695 0.125 -85.2949c0.689453 -29.6016 20.8418 -44.5986 60.7627 -44.7871h0.461914zM295.202 491.804c0 0 -0.188477 77.584 -0.266602 78.5244c-1.23828 28.8652 -21.4297 43.4863 -60.8955 43.5488
c-39.4658 -0.0625 -59.6572 -14.6826 -60.8877 -43.5479c-0.0234375 -0.94043 -0.227539 -78.5254 -0.227539 -78.5254c0 -25.2607 20.4814 -45.7422 45.7422 -45.7422h30.793c25.2607 0 45.7422 20.4814 45.7422 45.7422z" />
    <glyph glyph-name="nine" unicode="9" horiz-adv-x="539" 
d="M66.1455 217.123l140.142 0.208984v-40.8447c0 -30.832 20.2773 -46.291 60.8096 -46.291c40.9082 0 61.3662 15.459 61.3662 46.291v100.816c-18.499 -2.63281 -38.6748 -4.06641 -60.8486 -4.06641c-134.272 0 -201.421 47.8262 -201.421 143.447v192.873
c0 95.6455 67.1484 143.582 201.421 143.81c133.943 0 200.927 -47.9365 200.927 -143.809v-192.873c0 -0.791016 -0.109375 -1.49609 -0.109375 -2.28711h0.148438v-5.05371l37.1309 -37.1309l-37.1309 -37.1309v-200.528c0 -95.7002 -67.1875 -143.558 -201.484 -143.824
c-133.943 0 -200.95 47.9365 -200.95 143.824v82.5684zM268.092 412.728c40.2656 0 60.3945 15.4355 60.3945 46.3301v108.534c0 30.8711 -20.3008 46.3066 -60.8721 46.3066c-40.9082 0 -61.3662 -15.4355 -61.3662 -46.3066v-108.558
c0 -30.6436 20.293 -46.0791 60.8643 -46.3066h0.979492z" />
    <glyph glyph-name="colon" unicode=":" horiz-adv-x="234" 
d="M117.035 126.971c-46.4629 0 -84.127 37.6641 -84.127 84.127s37.6641 84.127 84.127 84.127s84.127 -37.6641 84.127 -84.127s-37.6641 -84.127 -84.127 -84.127zM117.035 448.883c-46.4629 0 -84.127 37.6641 -84.127 84.127s37.6641 84.1348 84.127 84.1348
s84.127 -37.6719 84.127 -84.1348s-37.6641 -84.127 -84.127 -84.127z" />
    <glyph glyph-name="semicolon" unicode=";" horiz-adv-x="237" 
d="M203.02 216.958c11.917 -122.488 -134.374 -178.621 -134.374 -178.621l-5.78223 14.1191c17.2764 20.2148 40.5703 51.4463 -1.04297 93.083c-18.7344 18.6875 -28.9121 39.0908 -28.9121 64.6416c0 45.9385 37.4678 85.0674 85.0674 85.0674
c44.2227 0 79.959 -32.3359 85.0439 -78.29zM118.313 448.881c-46.4629 0 -84.1348 37.6641 -84.1348 84.127s37.6719 84.1348 84.1348 84.1348s84.127 -37.6719 84.127 -84.1348s-37.6641 -84.127 -84.127 -84.127z" />
    <glyph glyph-name="less" unicode="&#x3c;" horiz-adv-x="382" 
d="M318.464 361.064c0 0 -31.084 33.7686 -99.0703 -2.13281l0.0625 0.0625c-0.015625 0 -0.0390625 0 -0.0625 -0.015625l-20.2305 -10.8516l20.2305 -10.6406c0.313477 -0.140625 0.587891 -0.289062 0.87793 -0.4375c67.3594 -35.125 98.1914 -1.68457 98.1914 -1.68457
v-0.0234375l30.5186 -16.1016v-240.417l-30.5186 16.1094v-0.0234375s-31.082 66.6074 -99.0684 102.485h0.250977l-152.732 80.8525l-34.0049 17.9424v104.092l34.0049 17.9424l152.482 80.7266l0.125 0.0625h-0.125c67.9863 35.8779 99.0684 102.485 99.0684 102.485
l30.5186 16.1016v-240.409z" />
    <glyph glyph-name="equal" unicode="=" horiz-adv-x="622" 
d="M32.9082 364.982h556.443v-190.225h-30.5186v-0.015625s-31.0586 50.1846 -99.0449 50.1846h-297.301c-67.9785 0 -99.0605 -50.1846 -99.0605 -50.1846v0.015625h-30.5186v190.225zM558.833 621.791h30.4961v-190.225h-556.421v190.225h30.5186v0.0234375
s31.0586 -50.1924 99.0449 -50.1924h297.293c67.9863 0 99.0684 50.1924 99.0684 50.1689z" />
    <glyph glyph-name="greater" unicode="&#x3e;" horiz-adv-x="382" 
d="M314.978 418.176l34.0068 -17.957v-104.092l-34.0049 -17.9424l-152.49 -80.7266l-0.125 -0.0625h0.125c-67.9785 -35.8779 -99.0605 -102.485 -99.0605 -102.485v0.0234375l-30.5186 -16.1094v240.417l30.5186 16.1016v0.0234375s31.082 -33.7773 99.0605 2.1084
l-0.0625 -0.0625c0.0234375 0.015625 0.046875 0.015625 0.046875 0.015625l20.2539 10.8672l-20.2383 10.6406c-0.313477 0.148438 -0.580078 0.289062 -0.870117 0.4375c-67.3594 35.125 -98.1914 1.69238 -98.1914 1.69238v0.015625l-30.5186 16.1094v240.409
l30.5186 -16.1016v0.015625s31.082 -66.5996 99.0605 -102.485h-0.250977z" />
    <glyph glyph-name="question" unicode="?" horiz-adv-x="505" 
d="M251.856 753.399c134.272 0 201.423 -47.834 201.423 -143.479v-114.481c0 -62.6582 -44.2461 -115.812 -131.147 -160.16c-19.251 -9.8252 -25.6758 -30.1025 -27.8066 -51.9004c5.71973 -59.0938 49.0879 -86.6895 49.0879 -86.6895h-0.0234375v-30.5186h-240.409
v30.5186h-0.0234375s50.1846 31.0742 50.1846 99.0605l0.0625 -0.125c0.87793 52.9189 9.87305 110.829 76.1045 150.209c43.8066 26.0605 83.5859 55.3018 83.915 85.9453v35.8154c0 30.6436 -20.293 46.0869 -60.8721 46.3145h-0.979492
c-40.2578 0 -60.3867 -15.4355 -60.3867 -46.3145v-44.6768l-140.056 -84.8398v171.866c0 95.6455 66.9834 143.456 200.927 143.456zM229.928 -33.9658c-46.4629 0 -84.127 37.6641 -84.127 84.127s37.6641 84.1348 84.127 84.1348s84.1348 -37.6719 84.1348 -84.1348
s-37.6719 -84.127 -84.1348 -84.127z" />
    <glyph glyph-name="at" unicode="@" horiz-adv-x="686" 
d="M557.769 754.567c52.5664 0 95.3486 -42.7656 95.3486 -95.3555v-551.728c0.0625 -3.70605 0.235352 -52.2295 -35.251 -88.6318c-24.9707 -25.6133 -60.9736 -38.5889 -106.967 -38.5889c-46.04 0 -81.6904 13.0146 -105.972 38.6514
c-35.1885 37.1943 -32.916 86.9482 -32.791 89.0557l-0.0234375 13.4141c-8.63477 -0.837891 -17.6455 -1.25293 -26.8438 -1.27637c-109.561 0 -132.564 53.1934 -132.564 97.8311v288.996c0 44.5439 22.9883 97.6279 132.541 97.6279
c12.5596 0 24.4688 -0.728516 35.4385 -2.12305l22.3623 26.3652h75.0537v-521.397c0 -0.336914 -0.0390625 -10.9141 7.47461 -18.5068c5.75098 -5.81348 14.8086 -8.7832 26.9062 -8.7832c12.2461 0 21.4209 3.04785 27.2812 9.01855
c7.42773 7.54492 7.57617 17.9814 7.57617 18.083v541.675l-12.2461 0.767578l-396.425 -0.791016v-556.045h178.189v-105.761h-188.618c-52.5664 0 -95.3311 42.7412 -95.3311 95.3311v576.84c0 52.5664 42.7412 95.3311 95.3311 95.3311h429.529zM372.114 243.496v255.429
h-26.5537c-26.8672 0 -26.8672 -11.5332 -26.8672 -17.7305v-237.698c0 -6.19727 0 -17.7305 26.5537 -17.7305c26.8672 0 26.8672 11.5332 26.8672 17.7305z" />
    <glyph glyph-name="A" unicode="A" horiz-adv-x="639" 
d="M538.909 128.992c15.584 -73.9492 66.3574 -98.4756 66.334 -98.4756v-30.5186h-237.511v30.5186s45.5625 24.8223 31.835 98.3096l-17.167 91.2656l-140.643 -74.3252l-3.14941 -16.7754c-13.8291 -73.6357 31.8115 -98.4736 31.8115 -98.4736v-30.5186h-237.511
v30.5186s51.3994 24.5088 66.9834 98.4736l43.5322 205.77l-29.2881 37.1309l44.998 37.1309l43.4932 205.574c14.4951 68.6055 -29.21 99.0459 -29.21 99.0459v30.5186h292.357v-30.5029s-43.7832 -30.3457 -29.2646 -98.959l43.3447 -205.66l44.998 -37.1309
l-29.4141 -37.0215zM271.234 302.463l87.0498 46.0166l-39.1924 208.496z" />
    <glyph glyph-name="B" unicode="B" horiz-adv-x="537" 
d="M485.449 467.139c0 -44.8096 -25.5742 -76.4941 -76.707 -95.0557c51.1328 -18.5928 76.707 -50.2783 76.707 -95.0645v-150.876c0 -69.6787 -56.4688 -126.14 -126.14 -126.14h-326.401v30.5186s50.1924 31.0742 50.1924 99.0371v205.205l-37.1309 37.1309
l37.1309 37.1309v205.55c0 67.9863 -50.1924 99.0684 -50.1924 99.0684v30.5186h326.401c69.6475 0 126.14 -56.4688 126.14 -126.147v-150.876zM300.372 604.672l-77.2256 0.000976562l-0.015625 -187.012l105.901 55.9668
c10.0605 5.32031 16.3369 15.7881 16.2979 27.1572l-0.125 59.2266c-0.0859375 24.6963 -20.1289 44.6602 -44.833 44.6602zM300.543 139.446c24.7832 0 44.8643 20.0889 44.8643 44.8955l-0.015625 92.7227c0 11.0322 -3.25977 20.1914 -9.78613 27.4316
c-11.6592 12.9277 -31.3096 14.9492 -46.7295 6.81641c-24.3594 -12.8652 -65.7295 -34.7334 -65.7295 -34.7334v-137.086z" />
    <glyph glyph-name="C" unicode="C" 
d="M472.364 546.062l-140.033 -74.3242v95.8799c0 30.6357 -20.7949 46.0791 -61.3662 46.3066c-40.2656 0 -60.8721 -15.4355 -60.8721 -46.3066v-391.089c0 -30.8711 20.293 -46.3066 60.8721 -46.3066c40.9004 0 61.3662 15.4355 61.3662 46.3066v103.276
l140.056 73.6201v-218.886c0 -95.6455 -67.1484 -143.582 -201.421 -143.81c-133.943 0 -200.927 47.9365 -200.927 143.809v200.238l-37.1309 37.1309l37.1309 37.123v200.928c0 95.6455 66.96 143.456 200.928 143.456c134.272 0 201.397 -47.8105 201.397 -143.456
v-63.8965z" />
    <glyph glyph-name="D" unicode="D" horiz-adv-x="556" 
d="M485.449 409.017l37.1318 -37.1523l-37.1309 -37.1309v-191.329c0 -95.4102 -65.166 -143.221 -195.482 -143.456h-257.06v30.5186s50.1924 31.0664 50.1924 99.0449v205.221l-37.1309 37.1309l37.1309 37.1309v205.558c0 67.9785 -50.1924 99.0605 -50.1924 99.0605
v30.5186h265.968c124.369 -0.227539 186.573 -48.1641 186.573 -143.785v-191.329zM345.41 185.769v372.19c0 31.0986 -20.293 46.6436 -60.8643 46.6436h-61.374v-465.141h61.374c40.5713 0 60.8643 15.4355 60.8643 46.3066z" />
    <glyph glyph-name="E" unicode="E" 
d="M459.727 190.028l30.5176 0.00195312l-30.5186 -190.028h-426.818v30.5186s50.0674 31.0117 50.1689 98.834v205.409l-37.1309 37.1309l37.1309 37.1309v205.762c-0.101562 67.8379 -50.1689 98.8574 -50.1689 98.8574v30.5186h426.818l30.4951 -190.021
l-30.5186 0.0859375s-31.0352 50.1064 -99.0215 50.1064h-137.571v-162.566h54.1104c67.752 0.148438 98.7715 50.5449 98.7715 50.5449h30.5186v-240.409h-30.5186c-0.015625 0.0390625 -31.0742 50.1846 -99.0215 50.1846h-53.8594v-162.245h137.556
c63.7002 0 99.0605 50.1846 99.0605 50.1846z" />
    <glyph glyph-name="F" unicode="F" 
d="M490.308 554.125l-30.5449 0.103516s-31.0352 50.1064 -99.0215 50.1064h-137.571v-162.566h54.1104c67.752 0.148438 98.7715 50.5449 98.7715 50.5449h30.5186v-240.409h-30.5186c-0.015625 0.0390625 -31.082 50.1846 -99.0215 50.1846h-53.8594l-0.164062 -173.284
c0.391602 -67.415 50.3105 -98.2861 50.3105 -98.2861v-30.5186h-240.409l0.0625 30.4951c0 0.0234375 50.0674 31.0352 50.1689 98.8574v205.409l-37.1309 37.1309l37.1309 37.1309v205.762c-0.101562 67.8379 -50.1689 98.8574 -50.1689 98.8574v30.5186h426.818z" />
    <glyph glyph-name="G" unicode="G" horiz-adv-x="556" 
d="M522.644 347.878l-0.0859375 -30.542c-0.188477 -0.125 -50.1699 -31.1836 -50.1699 -99.0215v-83.7744c0 -95.6455 -67.1484 -143.582 -201.421 -143.81c-133.943 0 -200.927 47.9365 -200.927 143.809v200.238l-37.1309 37.1309l37.1309 37.123v200.928
c0 95.6455 66.96 143.456 200.928 143.456c134.272 0 201.397 -47.8105 201.421 -143.456v-63.8965l-140.056 -74.3252v95.8799c0 30.6357 -20.7949 46.0791 -61.3662 46.3066c-40.2656 0 -60.8721 -15.4355 -60.8721 -46.3066v-391.089
c0 -30.8711 20.293 -46.3066 60.8721 -46.3066c40.9004 0 61.3662 15.4355 61.3662 46.3066v41.8877c-0.0625 67.9004 -50.1846 98.9434 -50.1846 98.9434v30.5186h240.495z" />
    <glyph glyph-name="H" unicode="H" horiz-adv-x="569" 
d="M485.465 129.548c0 -67.9785 50.1924 -99.0605 50.1924 -99.0996h-0.0234375v-30.5186h-240.409v30.5186s50.1455 31.0586 50.1846 98.9746v172.768h-122.238v-172.682c0 -67.9629 50.1924 -99.0449 50.1924 -99.0449h-0.046875v-30.5186h-240.409v30.5186
s50.1924 31.0664 50.1924 99.0449v205.221l-37.1309 37.1309l37.1309 37.1309v205.558c0 67.9785 -50.1924 99.0605 -50.1924 99.0605v30.5186h240.409v-30.4951h0.046875s-50.1924 -31.082 -50.1924 -99.0684v-172.697h122.238v172.76
c-0.0390625 67.9238 -50.1846 98.9824 -50.1846 98.9824v30.5186h240.409v-30.4951h0.0234375s-50.1924 -31.082 -50.1924 -99.0684v-205.55l37.1309 -37.1309l-37.1309 -37.1309v-205.205z" />
    <glyph glyph-name="I" unicode="I" horiz-adv-x="306" 
d="M223.172 129.548c0 -67.9785 50.208 -99.0605 50.1924 -99.084h-0.0234375v-30.5186h-240.409v30.5186h-0.0234375s50.1924 31.0664 50.1924 99.0449v205.221l-37.1309 37.1309l37.1309 37.1309v205.558c0 67.9785 -50.1924 99.0605 -50.1924 99.0605h0.0234375v30.5186
h240.409v-30.4951h0.0234375s-50.1924 -31.082 -50.1924 -99.0684v-205.55l37.1309 -37.1309l-37.1309 -37.1309v-205.205z" />
    <glyph glyph-name="J" unicode="J" horiz-adv-x="537" 
d="M453.301 614.566l-0.0244141 -205.573l37.1309 -37.1309l-37.1309 -37.1309v-200.238c0 -95.8721 -66.9834 -143.809 -200.927 -143.809c-134.297 0.250977 -201.422 48.1875 -201.422 143.809v219.16l140.056 -73.8867v-103.276
c0 -30.8789 20.4658 -46.3145 61.3662 -46.3145c40.5791 0 60.8721 15.4355 60.8721 46.3145v158.265l-37.1074 37.1074l37.1074 37.1309v205.558c0 67.9785 -50.1846 99.0605 -50.1846 99.0605h0.015625v30.5186h240.417v-30.5186h0.015625
s-50.1846 -31.0586 -50.1846 -99.0449z" />
    <glyph glyph-name="K" unicode="K" horiz-adv-x="671" 
d="M636.497 30.5264l0.538086 -0.0605469v-30.5186h-288.455v30.542s60.0186 25.2842 24.9482 99.0449l-76.3467 160.576l-74.0117 -112.35v-48.25c0 -67.9629 50.1924 -99.0449 50.1924 -99.0449h-0.046875v-30.5186h-240.409v30.5186s50.1924 31.0664 50.1924 99.0449
v205.221l-37.1309 37.1309l37.1309 37.1309v205.558c0 67.9785 -50.1924 99.0605 -50.1924 99.0605v30.5186h240.409v-30.4951h0.0234375s-50.1924 -31.082 -50.1924 -99.0684v-201.672l130.778 201.907c44.5752 69.1465 -5.36719 98.8105 -5.36719 98.8105v30.5186h277.674
v-30.4951s-59.8301 -14.707 -115.382 -99.0459l-127.558 -193.664l152.819 -288.784c51.5479 -97.4238 95.1436 -101.49 100.386 -101.615z" />
    <glyph glyph-name="L" unicode="L" 
d="M459.162 190.005l30.4951 -0.0234375l-30.5186 -190.036h-426.207v30.5186h-0.0234375s46.4551 29.3506 49.6045 92.6436l0.587891 211.623l-37.1309 37.1309l37.1309 37.1309v205.558c0 67.9785 -50.1924 99.0605 -50.1924 99.0605h0.0234375v30.5186h240.409v-30.4951
h0.0234375s-50.1924 -31.082 -50.1924 -99.0684v-205.55l37.1309 -37.1309l-37.1309 -37.1309v-194.941h136.944c67.7988 0 99.0225 50.1689 99.0225 50.1689z" />
    <glyph glyph-name="M" unicode="M" horiz-adv-x="718" 
d="M684.12 30.4873l0.078125 -0.0234375v-30.4561h-240.511v30.4561s50.2715 29.4375 50.2715 99.085v358.8l-80.0996 -289.544h-110.352l-80.335 289.082v-358.354c0 -67.9863 50.1924 -99.0684 50.1924 -99.0684h-0.0234375v-30.5186h-240.409v30.5186h-0.0234375
s50.1924 31.082 50.1924 99.0684v205.221l-37.1309 37.1309l37.1309 37.1309v205.55c0 67.9629 -50.1924 99.0449 -50.1924 99.0449h0.0234375v30.5186l259.284 -0.0390625l66.3408 -239.062l66.333 239.062l259.206 0.0390625v-30.4951h0.0234375
s-50.1924 -31.0586 -50.1924 -99.0449v-205.574l37.1309 -37.1309l-37.1309 -37.1309v-205.205c0 -67.9785 50.1924 -99.0605 50.1924 -99.0605z" />
    <glyph glyph-name="N" unicode="N" horiz-adv-x="651" 
d="M567.555 129.548c0 -67.9785 50.1846 -99.0605 50.1846 -99.0605h-0.0234375v-30.5186h-259.183l-135.362 487.894v-358.377c0 -67.9551 50.1924 -99.0371 50.1924 -99.0371h-0.0234375v-30.5186h-240.409v30.5186h-0.0234375s50.1924 31.0586 50.1924 99.0371v205.221
l-37.1309 37.1309l37.1309 37.1309v205.558c0 67.9863 -50.1924 99.0605 -50.1924 99.0605h0.0234375v30.5186h259.183l135.362 -487.894v358.338c0 67.9785 -50.1924 99.0605 -50.1924 99.0605h0.0234375v30.5186h240.409v-30.4951h0.0234375
s-50.1846 -31.082 -50.1846 -99.0684v-205.55l37.1309 -37.1309l-37.1309 -37.1309v-205.205z" />
    <glyph glyph-name="O" unicode="O" horiz-adv-x="543" 
d="M472.388 409.017l37.1309 -37.1309l-37.1309 -37.1309v-200.238c0 -95.6455 -67.1484 -143.582 -201.421 -143.81c-133.943 0 -200.927 47.9365 -200.927 143.809v200.238l-37.1309 37.1309l37.1309 37.1309v200.92c0 95.6455 66.9834 143.456 200.927 143.456
c134.272 0 201.421 -47.834 201.421 -143.455v-200.92zM332.332 176.506l-0.0234375 391.089c0 30.6436 -20.293 46.0791 -60.8643 46.3066h-0.979492c-40.2422 0 -60.3711 -15.4355 -60.3711 -46.3066v-391.089c0 -30.8711 20.293 -46.3066 60.8721 -46.3066
c40.9004 0 61.3662 15.4355 61.3662 46.3066z" />
    <glyph glyph-name="P" unicode="P" horiz-adv-x="566" 
d="M328.729 744.107c124.385 -0.227539 186.565 -48.1631 186.565 -143.784v-154.159c0 -70.5645 -44.7002 -116.063 -134.108 -136.482c-21.4453 -4.86523 -158.014 -7.30176 -158.014 -7.30176v-173.159c0.164062 -67.752 50.1689 -98.7559 50.1689 -98.7559v-30.5186
h-240.409v30.5186h-0.0234375s50.1924 31.082 50.1924 99.0449l0.015625 -0.0234375v205.245l-37.1309 37.1309l37.1309 37.1309v205.574l-0.015625 -0.0390625c0 67.9863 -50.1924 99.0605 -50.1924 99.0605h0.0234375v30.5186h295.797zM375.246 488.35
l-0.00195312 69.6094c0 31.0977 -20.3008 46.6582 -60.8721 46.6582h-91.2021v-162.582h73.8633c19.4629 0 32.8379 0.94043 40.0938 2.79785c25.4102 7.17676 38.1191 21.6953 38.1191 43.5166z" />
    <glyph glyph-name="Q" unicode="Q" horiz-adv-x="543" 
d="M348.042 -2.38965c37.0684 -37.5469 75.0781 -66.2324 124.322 10.4902v-139.679c-107.656 -167.604 -161.492 167.635 -269.172 -0.000976562v127.268c-88.7656 14.5186 -133.152 60.7861 -133.152 138.825v200.238l-37.1309 37.1309l37.1309 37.1309v200.92
c0 95.6455 66.9834 143.456 200.927 143.456c134.272 0 201.421 -47.834 201.421 -143.455v-200.92l37.1309 -37.1309l-37.1309 -37.1309v-200.238c0 -75.0771 -41.5742 -120.615 -124.346 -136.904zM332.356 176.504l-0.0234375 391.089
c0 30.6436 -20.293 46.0791 -60.8721 46.3066h-0.979492c-40.2344 0 -60.3633 -15.4355 -60.3633 -46.3066v-391.089c0 -30.8711 20.293 -46.3066 60.8643 -46.3066c40.9082 0 61.374 15.4355 61.374 46.3066z" />
    <glyph glyph-name="R" unicode="R" horiz-adv-x="588" 
d="M466.064 129.509c28.6611 -73.0947 89.0322 -99.0439 89.0322 -99.0439l-0.0234375 -30.5186h-240.409v30.5186h-0.0234375s37.7578 31.7725 11.3691 99.0693l-67.7676 172.908c-4.30176 -0.0390625 -35.0713 -0.0625 -35.0713 -0.0625v-173.159
c0.164062 -67.752 50.1689 -98.7559 50.1689 -98.7559v-30.5186h-240.409v30.5186h-0.0234375s50.1924 31.082 50.1924 99.0449l0.015625 -0.0234375v205.245l-37.1309 37.1309l37.1309 37.1309v205.574l-0.015625 -0.015625c0 67.9629 -50.1924 99.0371 -50.1924 99.0371
h0.0234375v30.5186h295.797c124.385 -0.227539 186.565 -48.1641 186.565 -143.785v-154.159c0 -66.96 -40.7588 -111.057 -121.258 -132.878zM223.171 604.616l-0.00195312 -162.582h73.8633c19.4629 0 32.8379 0.94043 40.0938 2.79785
c25.4102 7.19238 38.1191 21.6953 38.1191 43.5166v69.6084c0 31.1221 -20.3008 46.6592 -60.8721 46.6592h-91.2021z" />
    <glyph glyph-name="S" unicode="S" horiz-adv-x="505" 
d="M453.277 438.069l-140.053 84.8408v44.6846c0 30.6436 -20.293 46.0791 -60.8721 46.3066h-0.979492c-40.2344 0 -60.3633 -15.4355 -60.3633 -46.3066v-48.6025c0 -26.5146 33.2451 -58.2236 99.625 -95.1045l41.4873 11.6436l11.2041 -39.9287
c73.0088 -41.4717 109.952 -90.1133 109.952 -146.104v-95.6055c0 -95.8721 -66.9834 -163.161 -200.927 -163.161c-134.297 0.227539 -201.422 67.54 -201.422 163.161v164.109l140.056 -80.8525v-60.6445c0 -30.8711 20.4658 -46.3066 61.3662 -46.3066
c40.5791 0 60.8721 15.4355 60.8721 46.3066v64.625c0 23.0908 -21.9463 48.9629 -64.8291 77.5146l-40.6572 -10.6953l-10.7656 40.9082c-4.9834 2.625 -9.59863 5.21094 -14.8955 7.88281c-87.4258 43.8691 -131.146 97.251 -131.146 160.16v73.3223
c0 95.6289 66.9834 163.169 200.927 163.169c134.272 0 201.421 -67.54 201.421 -163.169v-152.153z" />
    <glyph glyph-name="T" unicode="T" horiz-adv-x="619" 
d="M585.678 554.117h-30.4971s-31.0586 50.1846 -99.0449 50.1846h-76.7852v-195.31l37.1309 -37.1309l-37.1309 -37.1309v-205.197c0 -67.9629 50.1924 -99.0449 50.1924 -99.0449h-0.0234375v-30.5186h-240.409v30.5186h-0.0234375s50.1846 31.0586 50.1846 99.0449
v205.221l-37.1309 37.1309l37.1309 37.1309v195.286h-76.8008c-67.9629 0 -99.0449 -50.1846 -99.0449 -50.1846h-30.5186l30.5186 190.036h491.733z" />
    <glyph glyph-name="U" unicode="U" horiz-adv-x="569" 
d="M485.426 614.598l-0.00195312 -205.572l37.1309 -37.1309l-37.1309 -37.1309v-200.238c0 -95.6455 -67.1484 -143.582 -201.429 -143.81c-133.936 0 -200.919 47.9365 -200.919 143.809v200.238l-37.1309 37.1309l37.1309 37.1309v205.55
c0 67.9863 -50.1689 99.0684 -50.1689 99.0684v30.5186h240.409v-30.5186s-50.1846 -31.082 -50.1846 -99.0449v-438.062c0 -30.8711 20.293 -46.3145 60.8643 -46.3145c40.9082 0 61.374 15.4434 61.374 46.3145v438.062c0 67.9629 -50.1689 99.0449 -50.1689 99.0449
v30.5186h240.417v-30.5186s-50.1924 -31.0664 -50.1924 -99.0449z" />
    <glyph glyph-name="V" unicode="V" horiz-adv-x="643" 
d="M609.857 743.347l0.000976562 -30.498c0.015625 0 -46.7295 -17.2295 -65.6045 -86.9863l-42.8037 -213.526l30.8945 -40.4844l-47.0664 -40.1553l-66.4355 -331.369h-192.019l-67.7363 331.346l-47.0977 40.1953l30.667 40.2031l-41.2451 201.711
c-16.3525 79.9355 -68.5039 99.0459 -68.5039 99.0459h0.0234375v30.5186h259.097v-30.542h0.0234375s-62.4551 -33.3936 -48.9551 -99.0371l78.1172 -379.736l78.5176 379.838l-0.0390625 -0.101562c13.5156 65.667 -48.9629 99.0605 -48.9629 99.0605h0.0234375v30.5186
h259.104z" />
    <glyph glyph-name="W" unicode="W" horiz-adv-x="848" 
d="M813.802 712.837c0 0 -60.4111 -18.084 -68.0664 -99.0459l-18.9844 -200.802l0.0234375 0.0234375l40.2188 -41.1348l-48.0225 -40.9707l-31.2627 -330.546h-211.043l-53.3193 302.05l-53.3193 -302.05h-211.043l-31.2705 330.569l-47.9756 40.9473l40.2188 41.1348
l-18.9844 200.755c-7.65527 80.9619 -68.0654 99.0693 -68.0654 99.0693h0.0234375v30.5186h259.081v-30.5186h0.015625s-55.8418 -31.498 -49.2676 -99.0459l40.2578 -413.757l69.6318 390.376l-0.313477 1.23047h142.062l-0.313477 -1.23047l69.585 -390.376
l40.2656 413.757c6.56641 67.5479 -49.2754 99.0459 -49.2754 99.0459h0.0234375v30.5186h259.104z" />
    <glyph glyph-name="X" unicode="X" horiz-adv-x="625" 
d="M507.701 127.033c44.207 -91.4062 83.9473 -96.1631 83.9238 -96.2021h-0.0234375v-30.5186h-240.409v30.5186h-0.0234375s45.8281 26.7021 10.5537 94.7666l-49.4561 95.4336l-49.4561 -95.4336c-35.2744 -68.0645 10.5537 -94.7666 10.5537 -94.7666h-0.0234375
v-30.5186h-240.409v30.5186h-0.0234375s39.7559 4.75586 83.9619 96.1855l99.5625 210.103l-33.958 33.958l34.1221 34.1309l-98.2852 208.638v-0.078125c-44.457 94.3682 -85.4043 99.0615 -85.4043 99.0615h0.0234375v30.5186h240.409v-30.5186h0.0234375
s-42.7881 -32.2109 -8.46973 -99.0615l47.3955 -92.3311l47.3877 92.3311c34.3418 66.8506 -8.46191 99.0615 -8.46191 99.0615h0.015625v30.5186h240.417v-30.4951h0.015625s-40.9707 -4.69336 -85.3965 -99.0693v0.0859375l-98.2305 -208.496l34.2715 -34.2715
l-34.1064 -34.1064z" />
    <glyph glyph-name="Y" unicode="Y" horiz-adv-x="625" 
d="M591.625 744.131l0.00195312 -30.4951c0.0234375 0 -40.9316 -4.69336 -85.3418 -99.085v0.078125l-104.193 -221.174l21.5859 -21.5938l-40.8613 -40.8613v-201.468c0 -67.9629 50.1924 -99.0449 50.1924 -99.0449h-0.0234375v-30.5186h-240.417v30.5186h-0.015625
s50.1846 31.0586 50.1846 99.0449v201.468l-40.8613 40.8613l20.9434 20.9434l-104.507 221.824v-0.078125c-44.457 94.3682 -85.4043 99.0615 -85.4043 99.0615h0.0234375v30.5186h240.409v-30.5186h0.0234375s-42.8037 -32.2109 -8.49316 -99.0615l47.3955 -92.3311
l47.3955 92.3311c34.334 66.8506 -8.46973 99.0615 -8.46973 99.0615h0.0234375v30.5186h240.409z" />
    <glyph glyph-name="Z" unicode="Z" horiz-adv-x="529" 
d="M446.523 189.981h30.5586l-30.5186 -190.036l-413.655 0.109375l148.463 341.915l-21.9072 29.8916l47.8574 29.8916l87.8799 202.51h-114.207c-61.123 0 -99.0225 -50.1689 -99.0225 -50.1689h-30.542l30.5186 190.036l413.655 -0.101562l-60.7236 -139.766
l-87.9033 -202.51l21.9072 -29.8916l-47.834 -29.8682l-87.7627 -202.181h114.215c63.3086 0 99.0215 50.1689 99.0215 50.1689z" />
    <glyph glyph-name="bracketleft" unicode="[" horiz-adv-x="440" 
d="M277.721 742.72l-67.626 0.000976562v-742.728h67.626c67.9863 0 99.0684 50.1924 99.0684 50.1924v-0.0234375h30.5186v-240.409h-30.5186v-0.0234375s-31.082 50.1924 -99.0684 50.1924h-207.682v475.42l-37.1309 37.1309l37.1309 37.1309v473.172h207.682
c67.9863 0 99.0684 50.1846 99.0684 50.1846v-0.015625h30.5186v-240.394h-30.5186v-0.0234375s-31.082 50.1924 -99.0684 50.1924z" />
    <glyph glyph-name="backslash" unicode="\" horiz-adv-x="699" 
d="M650.076 30.4951l16.1016 -30.4795h-240.409l-16.1094 30.5186h-0.015625s33.7695 31.0586 -2.1084 99.0449l-108.33 205.197l-56.7197 37.1309l17.5273 37.1309l-108.534 205.558c-35.8857 67.9785 -102.485 99.0605 -102.485 99.0605h0.015625l-16.1016 30.5186
h240.409l16.1094 -30.5186h0.015625s-33.7695 -31.082 2.1084 -99.0605l108.519 -205.558l56.7197 -37.1309l-17.5273 -37.1309l108.346 -205.221c35.8857 -67.9785 102.485 -99.0605 102.47 -99.0605z" />
    <glyph glyph-name="bracketright" unicode="]" horiz-adv-x="440" 
d="M370.177 409.604l37.1309 -37.1318l-37.1309 -37.1309v-475.459h-207.689c-67.9785 0 -99.0605 -50.1924 -99.0605 -50.1924v0.0234375h-30.5186v240.409h30.5186v0.0234375s31.082 -50.1924 99.0605 -50.1924h67.6338v742.743h-67.6338
c-67.9785 0 -99.0605 -50.1846 -99.0605 -50.1846v0.015625h-30.5186v240.417h30.5186v0.015625s31.082 -50.1846 99.0605 -50.1846h207.689v-473.172z" />
    <glyph glyph-name="asciicircum" unicode="^" horiz-adv-x="605" 
d="M555.56 457.454l16.0996 -30.4971h-240.409l-16.1094 30.5186h-0.015625s33.4326 30.832 -1.69238 98.1914c-0.148438 0.313477 -0.289062 0.580078 -0.4375 0.870117l-10.6406 20.2383l-10.8438 -20.2383c0 -0.015625 -0.0234375 -0.0390625 -0.0234375 -0.0625
l0.0625 0.046875c-35.9014 -67.9629 -2.10742 -99.0449 -2.10742 -99.0449h-0.015625l-16.1094 -30.5186h-240.409l16.1016 30.5186h-0.015625s66.5996 31.0586 102.485 99.0449v-0.125l0.0625 0.125l80.7266 152.482l17.9424 34.0049h104.092l17.9346 -34.0049
l80.8525 -152.732v0.250977c35.8857 -67.9863 102.485 -99.0684 102.47 -99.0684z" />
    <glyph glyph-name="underscore" unicode="_" horiz-adv-x="685" 
d="M621.415 150.688h30.5186v-240.409h-30.5186v-0.0234375s-31.082 50.1924 -99.0684 50.1924h-359.857c-67.9785 0 -99.0605 -50.1924 -99.0605 -50.1924v0.0234375h-30.5186v240.409h30.5186v0.0234375s31.082 -50.1924 99.0605 -50.1924h359.857
c67.9863 0 99.0684 50.1924 99.0684 50.1689z" />
    <glyph glyph-name="grave" unicode="`" horiz-adv-x="273" 
d="M196.328 743.01l43.4463 -259.229h-92.1348l-114.731 259.229h163.42z" />
    <glyph glyph-name="a" unicode="a" horiz-adv-x="639" 
d="M538.909 128.992c15.584 -73.9492 66.3574 -98.4756 66.334 -98.4756v-30.5186h-237.511v30.5186s45.5625 24.8223 31.835 98.3096l-17.167 91.2656l-140.643 -74.3252l-3.14941 -16.7754c-13.8291 -73.6357 31.8115 -98.4736 31.8115 -98.4736v-30.5186h-237.511
v30.5186s51.3994 24.5088 66.9834 98.4736l43.5322 205.77l-29.2881 37.1309l44.998 37.1309l43.4932 205.574c14.4951 68.6055 -29.21 99.0459 -29.21 99.0459v30.5186h292.357v-30.5029s-43.7832 -30.3457 -29.2646 -98.959l43.3447 -205.66l44.998 -37.1309
l-29.4141 -37.0215zM271.234 302.463l87.0498 46.0166l-39.1924 208.496z" />
    <glyph glyph-name="b" unicode="b" horiz-adv-x="537" 
d="M485.449 467.139c0 -44.8096 -25.5742 -76.4941 -76.707 -95.0557c51.1328 -18.5928 76.707 -50.2783 76.707 -95.0645v-150.876c0 -69.6787 -56.4688 -126.14 -126.14 -126.14h-326.401v30.5186s50.1924 31.0742 50.1924 99.0371v205.205l-37.1309 37.1309
l37.1309 37.1309v205.55c0 67.9863 -50.1924 99.0684 -50.1924 99.0684v30.5186h326.401c69.6475 0 126.14 -56.4688 126.14 -126.147v-150.876zM300.372 604.672l-77.2256 0.000976562l-0.015625 -187.012l105.901 55.9668
c10.0605 5.32031 16.3369 15.7881 16.2979 27.1572l-0.125 59.2266c-0.0859375 24.6963 -20.1289 44.6602 -44.833 44.6602zM300.543 139.446c24.7832 0 44.8643 20.0889 44.8643 44.8955l-0.015625 92.7227c0 11.0322 -3.25977 20.1914 -9.78613 27.4316
c-11.6592 12.9277 -31.3096 14.9492 -46.7295 6.81641c-24.3594 -12.8652 -65.7295 -34.7334 -65.7295 -34.7334v-137.086z" />
    <glyph glyph-name="c" unicode="c" 
d="M472.364 546.062l-140.033 -74.3242v95.8799c0 30.6357 -20.7949 46.0791 -61.3662 46.3066c-40.2656 0 -60.8721 -15.4355 -60.8721 -46.3066v-391.089c0 -30.8711 20.293 -46.3066 60.8721 -46.3066c40.9004 0 61.3662 15.4355 61.3662 46.3066v103.276
l140.056 73.6201v-218.886c0 -95.6455 -67.1484 -143.582 -201.421 -143.81c-133.943 0 -200.927 47.9365 -200.927 143.809v200.238l-37.1309 37.1309l37.1309 37.123v200.928c0 95.6455 66.96 143.456 200.928 143.456c134.272 0 201.397 -47.8105 201.397 -143.456
v-63.8965z" />
    <glyph glyph-name="d" unicode="d" horiz-adv-x="556" 
d="M485.449 409.017l37.1318 -37.1523l-37.1309 -37.1309v-191.329c0 -95.4102 -65.166 -143.221 -195.482 -143.456h-257.06v30.5186s50.1924 31.0664 50.1924 99.0449v205.221l-37.1309 37.1309l37.1309 37.1309v205.558c0 67.9785 -50.1924 99.0605 -50.1924 99.0605
v30.5186h265.968c124.369 -0.227539 186.573 -48.1641 186.573 -143.785v-191.329zM345.41 185.769v372.19c0 31.0986 -20.293 46.6436 -60.8643 46.6436h-61.374v-465.141h61.374c40.5713 0 60.8643 15.4355 60.8643 46.3066z" />
    <glyph glyph-name="e" unicode="e" 
d="M459.727 190.028l30.5176 0.00195312l-30.5186 -190.028h-426.818v30.5186s50.0674 31.0117 50.1689 98.834v205.409l-37.1309 37.1309l37.1309 37.1309v205.762c-0.101562 67.8379 -50.1689 98.8574 -50.1689 98.8574v30.5186h426.818l30.4951 -190.021
l-30.5186 0.0859375s-31.0352 50.1064 -99.0215 50.1064h-137.571v-162.566h54.1104c67.752 0.148438 98.7715 50.5449 98.7715 50.5449h30.5186v-240.409h-30.5186c-0.015625 0.0390625 -31.0742 50.1846 -99.0215 50.1846h-53.8594v-162.245h137.556
c63.7002 0 99.0605 50.1846 99.0605 50.1846z" />
    <glyph glyph-name="f" unicode="f" 
d="M490.308 554.125l-30.5449 0.103516s-31.0352 50.1064 -99.0215 50.1064h-137.571v-162.566h54.1104c67.752 0.148438 98.7715 50.5449 98.7715 50.5449h30.5186v-240.409h-30.5186c-0.015625 0.0390625 -31.082 50.1846 -99.0215 50.1846h-53.8594l-0.164062 -173.284
c0.391602 -67.415 50.3105 -98.2861 50.3105 -98.2861v-30.5186h-240.409l0.0625 30.4951c0 0.0234375 50.0674 31.0352 50.1689 98.8574v205.409l-37.1309 37.1309l37.1309 37.1309v205.762c-0.101562 67.8379 -50.1689 98.8574 -50.1689 98.8574v30.5186h426.818z" />
    <glyph glyph-name="g" unicode="g" horiz-adv-x="556" 
d="M522.644 347.878l-0.0859375 -30.542c-0.188477 -0.125 -50.1699 -31.1836 -50.1699 -99.0215v-83.7744c0 -95.6455 -67.1484 -143.582 -201.421 -143.81c-133.943 0 -200.927 47.9365 -200.927 143.809v200.238l-37.1309 37.1309l37.1309 37.123v200.928
c0 95.6455 66.96 143.456 200.928 143.456c134.272 0 201.397 -47.8105 201.421 -143.456v-63.8965l-140.056 -74.3252v95.8799c0 30.6357 -20.7949 46.0791 -61.3662 46.3066c-40.2656 0 -60.8721 -15.4355 -60.8721 -46.3066v-391.089
c0 -30.8711 20.293 -46.3066 60.8721 -46.3066c40.9004 0 61.3662 15.4355 61.3662 46.3066v41.8877c-0.0625 67.9004 -50.1846 98.9434 -50.1846 98.9434v30.5186h240.495z" />
    <glyph glyph-name="h" unicode="h" horiz-adv-x="569" 
d="M485.465 129.548c0 -67.9785 50.1924 -99.0605 50.1924 -99.0996h-0.0234375v-30.5186h-240.409v30.5186s50.1455 31.0586 50.1846 98.9746v172.768h-122.238v-172.682c0 -67.9629 50.1924 -99.0449 50.1924 -99.0449h-0.046875v-30.5186h-240.409v30.5186
s50.1924 31.0664 50.1924 99.0449v205.221l-37.1309 37.1309l37.1309 37.1309v205.558c0 67.9785 -50.1924 99.0605 -50.1924 99.0605v30.5186h240.409v-30.4951h0.046875s-50.1924 -31.082 -50.1924 -99.0684v-172.697h122.238v172.76
c-0.0390625 67.9238 -50.1846 98.9824 -50.1846 98.9824v30.5186h240.409v-30.4951h0.0234375s-50.1924 -31.082 -50.1924 -99.0684v-205.55l37.1309 -37.1309l-37.1309 -37.1309v-205.205z" />
    <glyph glyph-name="i" unicode="i" horiz-adv-x="306" 
d="M223.172 129.548c0 -67.9785 50.208 -99.0605 50.1924 -99.084h-0.0234375v-30.5186h-240.409v30.5186h-0.0234375s50.1924 31.0664 50.1924 99.0449v205.221l-37.1309 37.1309l37.1309 37.1309v205.558c0 67.9785 -50.1924 99.0605 -50.1924 99.0605h0.0234375v30.5186
h240.409v-30.4951h0.0234375s-50.1924 -31.082 -50.1924 -99.0684v-205.55l37.1309 -37.1309l-37.1309 -37.1309v-205.205z" />
    <glyph glyph-name="j" unicode="j" horiz-adv-x="519" 
d="M435.28 614.566l-0.0253906 -205.573l37.1309 -37.1309l-37.1309 -37.1309v-200.238c0 -95.8721 -66.9834 -143.809 -200.927 -143.809c-134.296 0.250977 -201.421 48.1875 -201.421 143.809v219.16l140.056 -73.8867v-103.276
c0 -30.8789 20.4658 -46.3145 61.3662 -46.3145c40.5791 0 60.8721 15.4355 60.8721 46.3145v158.265l-37.1074 37.1074l37.1074 37.1309v205.558c0 67.9785 -50.1846 99.0605 -50.1846 99.0605h0.015625v30.5186h240.417v-30.5186h0.015625
s-50.1846 -31.0586 -50.1846 -99.0449z" />
    <glyph glyph-name="k" unicode="k" horiz-adv-x="671" 
d="M636.497 30.5264l0.538086 -0.0605469v-30.5186h-288.455v30.542s60.0186 25.2842 24.9482 99.0449l-76.3467 160.576l-74.0117 -112.35v-48.25c0 -67.9629 50.1924 -99.0449 50.1924 -99.0449h-0.046875v-30.5186h-240.409v30.5186s50.1924 31.0664 50.1924 99.0449
v205.221l-37.1309 37.1309l37.1309 37.1309v205.558c0 67.9785 -50.1924 99.0605 -50.1924 99.0605v30.5186h240.409v-30.4951h0.0234375s-50.1924 -31.082 -50.1924 -99.0684v-201.672l130.778 201.907c44.5752 69.1465 -5.36719 98.8105 -5.36719 98.8105v30.5186h277.674
v-30.4951s-59.8301 -14.707 -115.382 -99.0459l-127.558 -193.664l152.819 -288.784c51.5479 -97.4238 95.1436 -101.49 100.386 -101.615z" />
    <glyph glyph-name="l" unicode="l" 
d="M459.162 190.005l30.4951 -0.0234375l-30.5186 -190.036h-426.207v30.5186h-0.0234375s46.4551 29.3506 49.6045 92.6436l0.587891 211.623l-37.1309 37.1309l37.1309 37.1309v205.558c0 67.9785 -50.1924 99.0605 -50.1924 99.0605h0.0234375v30.5186h240.409v-30.4951
h0.0234375s-50.1924 -31.082 -50.1924 -99.0684v-205.55l37.1309 -37.1309l-37.1309 -37.1309v-194.941h136.944c67.7988 0 99.0225 50.1689 99.0225 50.1689z" />
    <glyph glyph-name="m" unicode="m" horiz-adv-x="718" 
d="M684.12 30.4873l0.078125 -0.0234375v-30.4561h-240.511v30.4561s50.2715 29.4375 50.2715 99.085v358.8l-80.0996 -289.544h-110.352l-80.335 289.082v-358.354c0 -67.9863 50.1924 -99.0684 50.1924 -99.0684h-0.0234375v-30.5186h-240.409v30.5186h-0.0234375
s50.1924 31.082 50.1924 99.0684v205.221l-37.1309 37.1309l37.1309 37.1309v205.55c0 67.9629 -50.1924 99.0449 -50.1924 99.0449h0.0234375v30.5186l259.284 -0.0390625l66.3408 -239.062l66.333 239.062l259.206 0.0390625v-30.4951h0.0234375
s-50.1924 -31.0586 -50.1924 -99.0449v-205.574l37.1309 -37.1309l-37.1309 -37.1309v-205.205c0 -67.9785 50.1924 -99.0605 50.1924 -99.0605z" />
    <glyph glyph-name="n" unicode="n" horiz-adv-x="651" 
d="M567.555 129.548c0 -67.9785 50.1846 -99.0605 50.1846 -99.0605h-0.0234375v-30.5186h-259.183l-135.362 487.894v-358.377c0 -67.9551 50.1924 -99.0371 50.1924 -99.0371h-0.0234375v-30.5186h-240.409v30.5186h-0.0234375s50.1924 31.0586 50.1924 99.0371v205.221
l-37.1309 37.1309l37.1309 37.1309v205.558c0 67.9863 -50.1924 99.0605 -50.1924 99.0605h0.0234375v30.5186h259.183l135.362 -487.894v358.338c0 67.9785 -50.1924 99.0605 -50.1924 99.0605h0.0234375v30.5186h240.409v-30.4951h0.0234375
s-50.1846 -31.082 -50.1846 -99.0684v-205.55l37.1309 -37.1309l-37.1309 -37.1309v-205.205z" />
    <glyph glyph-name="o" unicode="o" horiz-adv-x="543" 
d="M472.388 409.017l37.1309 -37.1309l-37.1309 -37.1309v-200.238c0 -95.6455 -67.1484 -143.582 -201.421 -143.81c-133.943 0 -200.927 47.9365 -200.927 143.809v200.238l-37.1309 37.1309l37.1309 37.1309v200.92c0 95.6455 66.9834 143.456 200.927 143.456
c134.272 0 201.421 -47.834 201.421 -143.455v-200.92zM332.332 176.506l-0.0234375 391.089c0 30.6436 -20.293 46.0791 -60.8643 46.3066h-0.979492c-40.2422 0 -60.3711 -15.4355 -60.3711 -46.3066v-391.089c0 -30.8711 20.293 -46.3066 60.8721 -46.3066
c40.9004 0 61.3662 15.4355 61.3662 46.3066z" />
    <glyph glyph-name="p" unicode="p" horiz-adv-x="566" 
d="M328.729 744.131c124.361 -0.227539 186.565 -48.1631 186.565 -143.784v-154.159c0 -70.5723 -44.7002 -116.063 -134.108 -136.49c-21.4453 -4.85742 -158.014 -7.29395 -158.014 -7.29395v-173.183c0.164062 -67.752 50.1689 -98.7559 50.1689 -98.7559v-30.5186
h-240.409v30.5186h-0.0234375s50.1924 31.0664 50.1924 99.0449l0.015625 -0.0234375v205.245l-37.1309 37.1309l37.1309 37.1309v205.574l-0.015625 -0.015625c0 67.9785 -50.1924 99.0605 -50.1924 99.0605h0.0234375v30.5186h295.797zM375.246 488.389l-0.0253906 69.585
c0 31.1064 -20.3008 46.667 -60.8721 46.667h-91.2021v-162.566h73.8867c19.4629 0 32.8379 0.94043 40.0938 2.79785c25.4102 7.17676 38.1191 21.6953 38.1191 43.5166z" />
    <glyph glyph-name="q" unicode="q" horiz-adv-x="543" 
d="M348.042 -2.38965c37.0684 -37.5469 75.0781 -66.2324 124.322 10.4902v-139.679c-107.656 -167.604 -161.492 167.635 -269.172 -0.000976562v127.268c-88.7656 14.5186 -133.152 60.7861 -133.152 138.825v200.238l-37.1309 37.1309l37.1309 37.1309v200.92
c0 95.6455 66.9834 143.456 200.927 143.456c134.272 0 201.421 -47.834 201.421 -143.455v-200.92l37.1309 -37.1309l-37.1309 -37.1309v-200.238c0 -75.0771 -41.5742 -120.615 -124.346 -136.904zM332.356 176.504l-0.0234375 391.089
c0 30.6436 -20.293 46.0791 -60.8721 46.3066h-0.979492c-40.2344 0 -60.3633 -15.4355 -60.3633 -46.3066v-391.089c0 -30.8711 20.293 -46.3066 60.8643 -46.3066c40.9082 0 61.374 15.4355 61.374 46.3066z" />
    <glyph glyph-name="r" unicode="r" horiz-adv-x="588" 
d="M466.064 129.329c28.6611 -73.0869 89.0322 -99.0361 89.0322 -99.0596h-0.0234375v-30.5186h-240.409v30.5186h-0.0234375s37.7578 31.7725 11.3691 99.0615l-67.7676 172.908c-4.30176 -0.0390625 -35.0713 -0.0625 -35.0713 -0.0625v-173.159
c0.164062 -67.752 50.1689 -98.748 50.1689 -98.748v-30.5186h-240.409v30.5186h-0.0234375s50.1924 31.082 50.1924 99.0605l0.015625 -0.015625v205.237l-37.1309 37.1309l37.1309 37.1309v205.582l-0.015625 -0.0234375c0 67.9629 -50.1924 99.0449 -50.1924 99.0449
h0.0234375v30.5186h295.797c124.385 -0.235352 186.565 -48.1719 186.565 -143.793v-154.151c0 -66.9678 -40.7588 -111.064 -121.258 -132.886zM375.246 488.169l-0.0253906 69.6084c0 31.1221 -20.3008 46.667 -60.8721 46.667h-91.2021v-162.59h73.8867
c19.4629 0 32.8379 0.94043 40.0938 2.79785c25.4102 7.2002 38.1191 21.6953 38.1191 43.5166z" />
    <glyph glyph-name="s" unicode="s" horiz-adv-x="505" 
d="M453.277 438.069l-140.053 84.8408v44.6846c0 30.6436 -20.293 46.0791 -60.8721 46.3066h-0.979492c-40.2344 0 -60.3633 -15.4355 -60.3633 -46.3066v-48.6025c0 -26.5146 33.2451 -58.2236 99.625 -95.1045l41.4873 11.6436l11.2041 -39.9287
c73.0088 -41.4717 109.952 -90.1133 109.952 -146.104v-95.6055c0 -95.8721 -66.9834 -163.161 -200.927 -163.161c-134.297 0.227539 -201.422 67.54 -201.422 163.161v164.109l140.056 -80.8525v-60.6445c0 -30.8711 20.4658 -46.3066 61.3662 -46.3066
c40.5791 0 60.8721 15.4355 60.8721 46.3066v64.625c0 23.0908 -21.9463 48.9629 -64.8291 77.5146l-40.6572 -10.6953l-10.7656 40.9082c-4.9834 2.625 -9.59863 5.21094 -14.8955 7.88281c-87.4258 43.8691 -131.146 97.251 -131.146 160.16v73.3223
c0 95.6289 66.9834 163.169 200.927 163.169c134.272 0 201.421 -67.54 201.421 -163.169v-152.153z" />
    <glyph glyph-name="t" unicode="t" horiz-adv-x="619" 
d="M585.678 554.117h-30.4971s-31.0586 50.1846 -99.0449 50.1846h-76.7852v-195.31l37.1309 -37.1309l-37.1309 -37.1309v-205.197c0 -67.9629 50.1924 -99.0449 50.1924 -99.0449h-0.0234375v-30.5186h-240.409v30.5186h-0.0234375s50.1846 31.0586 50.1846 99.0449
v205.221l-37.1309 37.1309l37.1309 37.1309v195.286h-76.8008c-67.9629 0 -99.0449 -50.1846 -99.0449 -50.1846h-30.5186l30.5186 190.036h491.733z" />
    <glyph glyph-name="u" unicode="u" horiz-adv-x="569" 
d="M485.426 614.598l-0.00195312 -205.572l37.1309 -37.1309l-37.1309 -37.1309v-200.238c0 -95.6455 -67.1484 -143.582 -201.429 -143.81c-133.936 0 -200.919 47.9365 -200.919 143.809v200.238l-37.1309 37.1309l37.1309 37.1309v205.55
c0 67.9863 -50.1689 99.0684 -50.1689 99.0684v30.5186h240.409v-30.5186s-50.1846 -31.082 -50.1846 -99.0449v-438.062c0 -30.8711 20.293 -46.3145 60.8643 -46.3145c40.9082 0 61.374 15.4434 61.374 46.3145v438.062c0 67.9629 -50.1689 99.0449 -50.1689 99.0449
v30.5186h240.417v-30.5186s-50.1924 -31.0664 -50.1924 -99.0449z" />
    <glyph glyph-name="v" unicode="v" horiz-adv-x="643" 
d="M609.857 743.347l0.000976562 -30.498c0.015625 0 -46.7295 -17.2295 -65.6045 -86.9863l-42.8037 -213.526l30.8945 -40.4844l-47.0664 -40.1553l-66.4355 -331.369h-192.019l-67.7363 331.346l-47.0977 40.1953l30.667 40.2031l-41.2451 201.711
c-16.3525 79.9355 -68.5039 99.0459 -68.5039 99.0459h0.0234375v30.5186h259.097v-30.542h0.0234375s-62.4551 -33.3936 -48.9551 -99.0371l78.1172 -379.736l78.5176 379.838l-0.0390625 -0.101562c13.5156 65.667 -48.9629 99.0605 -48.9629 99.0605h0.0234375v30.5186
h259.104z" />
    <glyph glyph-name="w" unicode="w" horiz-adv-x="847" 
d="M813.802 712.837c0 0 -60.4111 -18.084 -68.0664 -99.0459l-18.9844 -200.802l0.0234375 0.0234375l40.2188 -41.1348l-48.0225 -40.9707l-31.2627 -330.546h-211.043l-53.3193 302.05l-53.3193 -302.05h-211.043l-31.2705 330.569l-47.9756 40.9473l40.2188 41.1348
l-18.9844 200.755c-7.65527 80.9619 -68.0654 99.0693 -68.0654 99.0693h0.0234375v30.5186h259.081v-30.5186h0.015625s-55.8418 -31.498 -49.2676 -99.0459l40.2578 -413.757l69.6318 390.376l-0.313477 1.23047h142.062l-0.313477 -1.23047l69.585 -390.376
l40.2656 413.757c6.56641 67.5479 -49.2754 99.0459 -49.2754 99.0459h0.0234375v30.5186h259.104z" />
    <glyph glyph-name="x" unicode="x" horiz-adv-x="625" 
d="M507.701 127.033c44.207 -91.4062 83.9473 -96.1631 83.9238 -96.2021h-0.0234375v-30.5186h-240.409v30.5186h-0.0234375s45.8281 26.7021 10.5537 94.7666l-49.4561 95.4336l-49.4561 -95.4336c-35.2744 -68.0645 10.5537 -94.7666 10.5537 -94.7666h-0.0234375
v-30.5186h-240.409v30.5186h-0.0234375s39.7559 4.75586 83.9619 96.1855l99.5625 210.103l-33.958 33.958l34.1221 34.1309l-98.2852 208.638v-0.078125c-44.457 94.3682 -85.4043 99.0615 -85.4043 99.0615h0.0234375v30.5186h240.409v-30.5186h0.0234375
s-42.7881 -32.2109 -8.46973 -99.0615l47.3955 -92.3311l47.3877 92.3311c34.3418 66.8506 -8.46191 99.0615 -8.46191 99.0615h0.015625v30.5186h240.417v-30.4951h0.015625s-40.9707 -4.69336 -85.3965 -99.0693v0.0859375l-98.2305 -208.496l34.2715 -34.2715
l-34.1064 -34.1064z" />
    <glyph glyph-name="y" unicode="y" horiz-adv-x="625" 
d="M591.625 744.131l0.00195312 -30.4951c0.0234375 0 -40.9316 -4.69336 -85.3418 -99.085v0.078125l-104.193 -221.174l21.5859 -21.5938l-40.8613 -40.8613v-201.468c0 -67.9629 50.1924 -99.0449 50.1924 -99.0449h-0.0234375v-30.5186h-240.417v30.5186h-0.015625
s50.1846 31.0586 50.1846 99.0449v201.468l-40.8613 40.8613l20.9434 20.9434l-104.507 221.824v-0.078125c-44.457 94.3682 -85.4043 99.0615 -85.4043 99.0615h0.0234375v30.5186h240.409v-30.5186h0.0234375s-42.8037 -32.2109 -8.49316 -99.0615l47.3955 -92.3311
l47.3955 92.3311c34.334 66.8506 -8.46973 99.0615 -8.46973 99.0615h0.0234375v30.5186h240.409z" />
    <glyph glyph-name="z" unicode="z" horiz-adv-x="529" 
d="M446.523 189.981h30.5586l-30.5186 -190.036l-413.655 0.109375l148.463 341.915l-21.9072 29.8916l47.8574 29.8916l87.8799 202.51h-114.207c-61.123 0 -99.0225 -50.1689 -99.0225 -50.1689h-30.542l30.5186 190.036l413.655 -0.101562l-60.7236 -139.766
l-87.9033 -202.51l21.9072 -29.8916l-47.834 -29.8682l-87.7627 -202.181h114.215c63.3086 0 99.0215 50.1689 99.0215 50.1689z" />
    <glyph glyph-name="braceleft" unicode="{" horiz-adv-x="504" 
d="M274.007 492.109c0 -99.7588 -72.9229 -120.223 -72.9229 -120.223s72.9072 -20.4814 72.9072 -120.217v-235.904c0 -8.10938 6.58984 -14.707 14.707 -14.707h52.9189c67.9785 0 99.0605 50.1689 99.0605 50.1689h30.5186v-240.394l-30.5186 -0.015625
s-31.0586 50.1846 -99.0371 50.1846h-67.6338c-77.3496 0 -140.056 62.7061 -140.056 140.056v250.611s0 83.0928 -101.044 120.216c101.044 37.1309 101.044 120.224 101.044 120.224v250.611c0 77.3496 62.7061 140.056 140.056 140.056h67.6338
c67.9551 0 99.0371 50.1846 99.0371 50.1846l30.542 -0.015625v-240.394h-30.5186s-31.082 50.1689 -99.0605 50.1689h-52.9268c-8.10938 0 -14.707 -6.59766 -14.707 -14.707v-235.904z" />
    <glyph glyph-name="verticalbar" unicode="|" horiz-adv-x="306" 
d="M223.172 -60.6846c0 -67.9863 50.1924 -99.0449 50.1924 -99.084h-0.0234375v-30.5186h-240.409v30.5186h-0.0234375s50.1924 31.082 50.1924 99.0605v395.445l-37.1309 37.1309l37.1309 37.1309v394.38c0 67.9785 -50.1924 99.0605 -50.1924 99.0605h0.0234375v30.5186
h240.409v-30.4951h0.0234375s-50.1924 -31.082 -50.1924 -99.0684v-394.38l37.1309 -37.1309l-37.1309 -37.123v-395.445z" />
    <glyph glyph-name="braceright" unicode="}" horiz-adv-x="504" 
d="M370.177 492.893c0 0 0 -83.1104 101.044 -120.226c-101.044 -37.123 -101.044 -120.216 -101.044 -120.216v-250.65c0 -77.3496 -62.7061 -140.056 -140.056 -140.056h-67.6338c-67.9551 0 -99.0371 -50.1924 -99.0371 -50.1924l-30.5186 0.0234375v240.409h30.5186
s31.082 -50.1611 99.0605 -50.1611h52.9189c8.11719 0 14.707 6.58984 14.707 14.6992v235.912c0 99.7275 72.9072 120.217 72.9072 120.217s-72.9072 20.4814 -72.9072 120.217v235.904c0 8.11719 -6.58984 14.707 -14.707 14.707h-52.9189
c-67.9785 0 -99.0605 -50.1689 -99.0605 -50.1689h-30.5186v240.417l30.5186 0.015625s31.0586 -50.1846 99.0371 -50.1846h67.6338c77.3496 0 140.056 -62.7061 140.056 -140.056v-250.611z" />
    <glyph glyph-name="asciitilde" unicode="~" horiz-adv-x="603" 
d="M547.779 488.396l22.2744 -0.0869141v-153.281c-23.2549 -25.9033 -54.1338 -58.9912 -133.756 -58.9912c-93.5371 0 -184.755 94.5557 -264.235 94.5557c-82.1445 0 -109.239 -67.4385 -114.521 -78.9951l-24.6338 -0.015625v176.45
c15.5215 21.9072 73.5498 46.667 122.967 46.667c131.711 0 196.022 -88.9307 273.419 -88.9307c100.542 0 112.93 53.6953 118.485 62.6279z" />
    <glyph glyph-name="nonbreakingspace" unicode="&#xa0;" horiz-adv-x="375" 
 />
    <glyph glyph-name="exclamdown" unicode="&#xa1;" horiz-adv-x="306" 
d="M223.148 104.287c0 -67.9785 50.1924 -99.0605 50.2158 -99.084h-0.0234375v-30.5186h-240.409v30.5186h-0.0234375s50.1924 31.082 50.1924 99.0684v205.55l-37.1309 37.1309l37.1309 37.1309v35.6738c0 67.9785 -50.1924 99.0605 -50.1924 99.0605h0.0234375v30.5186
h240.386v-30.4951h0.0234375s-50.1924 -31.082 -50.1924 -99.0605v-35.6738l37.1309 -37.1309l-37.1309 -37.1309v-205.558zM153.125 585.16c-46.4551 0 -84.127 37.6484 -84.127 84.127c0 46.4707 37.6719 84.127 84.127 84.127s84.127 -37.6719 84.127 -84.127
s-37.6719 -84.127 -84.127 -84.127z" />
    <glyph glyph-name="cent" unicode="&#xa2;" horiz-adv-x="505" 
d="M453.277 417.22h-140.056v35.8154c0 30.6436 -20.293 46.0791 -60.8721 46.3066h-0.979492c-40.2578 0 -60.3867 -15.4355 -60.3867 -46.3066v-163.334c0 -30.8711 20.293 -46.3066 60.8721 -46.3066c40.9004 0 61.3662 15.4355 61.3662 46.3066v35.4229h140.056
v-77.4121c0 -76.5977 -43.2041 -122.513 -129.353 -137.909c8.36816 -54.1104 48.375 -79.2852 48.375 -79.2852v-30.5186h-240.409l-0.0234375 30.5186s39.9678 25.1123 48.3906 79.0977c-86.1484 15.2314 -129.328 61.2012 -129.328 138.097v247.673
c0 76.7227 43.2197 122.59 129.479 137.759c-7.99219 54.9014 -48.501 80.499 -48.501 80.499v30.5186h240.394l0.0390625 -30.5029s-40.5713 -25.6133 -48.5166 -80.5615c86.2109 -15.2236 129.454 -61.0752 129.454 -137.712v-78.165z" />
    <glyph glyph-name="sterling" unicode="&#xa3;" horiz-adv-x="580" 
d="M528.418 168.631l18.4854 -4.61426v-123.57c-34.6709 -21.9463 -63.5205 -40.4297 -114.355 -40.4297c-80.5391 0 -132.69 80.8359 -198.647 80.8359c-45.209 0 -85.9053 -41.1982 -108.142 -64.085c-4.50488 -4.69336 -7.36523 -7.5293 -7.36523 -7.5293
l-72.7822 98.207s2.3584 2.54688 6.2998 6.52734c55.8418 58.2627 55.1602 91.1787 55.1602 91.1787v134.007h-74.1611v101.177h74.1611v169.634c0 95.6367 66.9756 143.455 200.919 143.455c134.28 0 201.429 -47.834 201.429 -143.455v-78.165h-140.056v35.8154
c0 30.6436 -20.3008 46.0791 -60.8721 46.3145h-0.979492c-40.2578 0 -60.3945 -15.4434 -60.3945 -46.3145v-127.284h96.084v-101.177h-96.084v-111.409c0 -5.57129 -0.517578 -11.2676 -1.39551 -17.042c80.0605 -6.91113 157.246 -80.1709 199.36 -80.1709
c63.5596 0 78.7285 30.001 83.3359 38.0947z" />
    <glyph glyph-name="yen" unicode="&#xa5;" horiz-adv-x="624" 
d="M591.625 744.139v-30.5186c0.0234375 0 -40.9473 -4.67773 -85.3418 -99.0459v0.0859375l-98.2305 -208.496h56.0146v-83.9238h-81.252v-52.5664h81.252v-83.9238h-81.252v-56.2334c0 -67.9629 50.1924 -99.0449 50.1924 -99.0449h-0.0234375v-30.5186h-240.417v30.5186
h-0.015625s50.1846 31.0586 50.1846 99.0449v56.2178h-82.208v83.916h82.208v52.5664h-82.208v83.9238h56.0146l-98.2305 208.496v-0.0859375c-44.457 94.376 -85.4043 99.0693 -85.4043 99.0693h0.0234375v30.5186h240.386v-30.5186h0.0234375
s-42.8037 -32.2109 -8.46973 -99.0693l47.3955 -92.3232l47.4111 92.3467c34.3184 66.8584 -8.48535 99.0459 -8.48535 99.0459h0.0234375v30.5186h240.409z" />
    <glyph glyph-name="section" unicode="&#xa7;" horiz-adv-x="468" 
d="M435.233 498.088l-140.048 67.6729v27.6191c0 23.5059 -20.4502 45.2021 -61.3506 45.2021c-40.5791 0 -60.8721 -21.6963 -60.8721 -45.2021v-11.3066c0 -65.6279 262.27 -104.953 262.27 -220.993v-64.21c0 -28.1367 -10.1543 -53.0059 -30.1416 -73.0332
c18.46 -17.5195 30.1426 -37.4209 30.1426 -60.7383v-72.8057c0 -73.0088 -66.9756 -124.259 -200.919 -124.259c-134.28 0.188477 -201.405 51.4385 -201.405 124.26v131.068l140.056 -67.6729v-27.6191c0 -23.5059 20.4424 -45.2021 61.3506 -45.2021
c40.5713 0 60.8721 21.6963 60.8721 45.2021v11.3066c0 65.6279 -262.277 104.945 -262.277 220.993v64.2021c0 28.1445 10.1621 53.0059 30.1416 73.0332c-18.46 17.5273 -30.1426 37.4209 -30.1426 60.7461v72.7979c0 73.0166 66.9834 124.267 200.927 124.267
c134.272 -0.188477 201.397 -51.4385 201.397 -124.268v-131.061zM319.796 339.032c0 35.791 -77.6162 61.7256 -152.091 94.7041c-12.748 -5.79785 -19.3379 -15.1689 -19.3379 -28.3945v-24.9082c0 -35.791 77.6006 -61.7178 152.091 -94.7041
c12.748 5.78223 19.3379 15.1689 19.3379 28.3945v24.9082z" />
    <glyph glyph-name="copyright" unicode="&#xa9;" horiz-adv-x="571" 
d="M462.062 743.01c42.2402 0 76.4961 -34.2324 76.4961 -76.4727v-496.787c0 -42.2402 -34.2559 -76.4883 -76.4961 -76.4883h-352.657c-42.2402 0 -76.4961 34.248 -76.4961 76.4883v496.764c0 42.2637 34.2559 76.4961 76.4961 76.4961h352.657zM462.062 177.782
l0.0234375 480.725c0 4.44238 -3.58887 8.03125 -8.03125 8.03125l-11.8076 0.767578h-312.987l-11.8076 -0.767578c-4.44238 0 -8.03125 -3.58887 -8.03125 -8.03125v-480.725c0 -4.44238 3.58887 -8.03125 8.03125 -8.03125h336.579
c4.44238 0 8.03125 3.58887 8.03125 8.03125zM288.863 626.798c73.3457 0 109.992 -26.1162 109.992 -78.3691v-61.0215h-76.4883v37.9072c0 16.7285 -11.1025 25.1592 -33.2529 25.2842h-0.541016c-21.9932 0 -32.9863 -8.43066 -32.9863 -25.2842v-213.589
c0 -16.8535 11.1025 -25.2764 33.2529 -25.2764c22.3457 0 33.5264 8.42285 33.5264 25.2764v37.9072h76.4883v-60.833c0 -52.2295 -36.6455 -78.4072 -109.991 -78.5322c-73.1582 0 -109.726 26.1777 -109.726 78.5332v259.645c0 52.2373 36.5674 78.3525 109.726 78.3525z
" />
    <glyph glyph-name="ordfeminine" unicode="&#xaa;" horiz-adv-x="371" 
d="M302.104 416.859c8.28223 -39.3408 35.6338 -52.3994 35.6494 -52.3994h-0.329102v-16.2266h-126.375v16.2266s24.2422 13.2021 16.9395 52.3154l-9.13574 48.5625l-74.8037 -39.5527l-1.69238 -8.9248c-7.36523 -39.1768 16.916 -52.4023 16.916 -52.4023v-16.2266
h-126.367v16.2266s27.3291 13.0615 35.627 52.4023l23.1533 109.49l-15.5762 19.7607l23.9443 19.7529l23.1377 109.372c7.71777 36.5049 -15.5449 52.6924 -15.5449 52.6924v16.2266h155.53v-16.25s-23.2549 -16.1875 -15.5371 -52.6924l-0.0625 0.101562l23.0752 -109.49
l0.015625 0.015625l23.9521 -19.7529l-15.584 -19.7529l-0.0625 0.0625l23.1143 -109.6zM159.697 509.17l46.3066 24.4697l-20.8574 110.932z" />
    <glyph glyph-name="guillemotleft" unicode="&#xab;" horiz-adv-x="661" 
d="M350.04 440.992l-122.011 -92.7617l122.011 -92.7617v-148.525l-317.132 241.287l317.132 241.287v-148.525zM628.191 589.518v-148.525l-122.011 -92.7617l122.011 -92.7617v-148.525l-317.155 241.287z" />
    <glyph glyph-name="softhyphen" unicode="&#xad;" horiz-adv-x="0" 
 />
    <glyph glyph-name="registered" unicode="&#xae;" horiz-adv-x="571" 
d="M462.062 743.01c42.2402 0 76.4727 -34.2324 76.4961 -76.4727v-496.787c0 -42.2402 -34.2559 -76.4883 -76.4961 -76.4883h-352.657c-42.2402 0 -76.4961 34.248 -76.4961 76.4883v496.764c0 42.2637 34.2559 76.4961 76.4961 76.4961h352.657zM462.062 177.782v480.725
c0 4.44238 -3.58887 8.03125 -8.03125 8.03125l-11.8076 0.767578h-312.979l-11.8076 -0.767578c-4.44238 0 -8.03125 -3.58887 -8.03125 -8.03125v-480.725c0 -4.44238 3.58887 -8.03125 8.03125 -8.03125h336.595c4.44238 0 8.03125 3.58887 8.03125 8.03125z
M391.012 459.021c0 -30.4951 -15.5596 -52.2783 -46.1406 -65.6064l70.0078 -178.064h-76.4961l-64.9541 165.254c-2.28027 -0.015625 -4.36426 -0.101562 -6.73828 -0.101562h-12.4346v-165.151h-76.4961v406.399h111.354c67.9395 -0.125 101.897 -26.3262 101.897 -78.54
v-84.1895zM314.517 482.048l-0.000976562 38.0088c0 17.0029 -11.0947 25.4883 -33.2451 25.4883h-27.0391v-88.7734h17.5664c10.6406 0 17.9434 0.493164 21.9004 1.51953c13.876 3.91797 20.8184 11.8477 20.8184 23.7568z" />
    <glyph glyph-name="degree" unicode="&#xb0;" horiz-adv-x="476" 
d="M237.848 753.368c113.165 0 204.908 -91.7432 204.908 -204.932s-91.7432 -204.932 -204.908 -204.932c-113.188 0 -204.932 91.7432 -204.932 204.932s91.7432 204.932 204.932 204.932zM237.824 428.307c66.3799 0 120.153 53.7969 120.153 120.13
c0 66.3564 -53.7969 120.13 -120.153 120.13c-66.333 0 -120.13 -53.7734 -120.13 -120.13s53.7969 -120.13 120.13 -120.13z" />
    <glyph glyph-name="twosuperior" unicode="&#xb2;" horiz-adv-x="290" 
d="M240.448 450.426l16.4307 0.0166016l-16.415 -102.195h-207.532v103.512c0 33.0801 23.4199 76.3467 70.251 99.9385c1.31641 0.650391 2.44434 1.29297 3.71387 1.94336l7.17676 25.5898l25.1982 -7.06738c22.8242 14.9102 34.5693 28.1592 34.6943 39.6299v41.6992
c0 16.4854 -10.9141 24.7832 -32.7354 24.9082h-0.517578c-21.6562 0 -32.4766 -8.29785 -32.4766 -24.9082v-24.0303l-75.3281 -45.6172v92.4326c0 51.415 36.0264 77.1387 108.056 77.1387c72.2178 0 108.322 -25.7236 108.307 -77.1387v-84.0254
c0 -27.7051 -16.1719 -51.9863 -47.9355 -72.9453l-6.40918 -24.3281l-24.8613 6.5498c-41.0332 -21.6963 -61.8281 -40.9082 -61.8281 -57.5898v-20.5127h78.9326c33.6445 0 53.2559 27 53.2793 27z" />
    <glyph glyph-name="threesuperior" unicode="&#xb3;" horiz-adv-x="282" 
d="M249.146 676.293l-0.00195312 -79.3486c0 -14.5654 -5.13184 -26.4746 -15.1689 -35.877l15.1689 -15.1689l-15.208 -15.208c10.0762 -9.41016 15.208 -21.3828 15.208 -35.9404v-73.9258c0 -51.5479 -36.0029 -77.3105 -107.993 -77.3105
c-72.1787 0.148438 -108.244 25.8643 -108.244 77.3105v21.8604l75.2656 46.0166v-45.3506c0 -16.5635 10.9932 -24.8613 32.9785 -24.8613c21.7744 0 32.7285 8.29785 32.7285 24.8613v40.7432c0 13.5781 -10.9932 24.5869 -24.5713 24.5869h-31.835v75.2891h31.835
c13.5547 0 24.5713 10.9932 24.5713 24.5713v45.0371c0 16.5635 -10.8281 24.8691 -32.4766 24.8691h-0.500977c-21.8447 -0.0859375 -32.7275 -8.40723 -32.7275 -24.8691v-28.998l-75.2656 -45.5938v97.3301c0 51.4385 36.0654 77.0986 108.244 77.0986
c71.9668 0 107.993 -25.6758 107.993 -77.1221z" />
    <glyph glyph-name="periodcentered" unicode="&#xb7;" horiz-adv-x="234" 
d="M117.035 287.954c-46.4629 0 -84.127 37.6641 -84.127 84.127s37.6641 84.1348 84.127 84.1348s84.127 -37.6719 84.127 -84.1348s-37.6641 -84.127 -84.127 -84.127z" />
    <glyph glyph-name="onesuperior" unicode="&#xb9;" horiz-adv-x="230" 
d="M169.398 417.925c0 -36.5674 26.9941 -53.2803 26.9941 -53.3037v-16.415h-129.29v16.415s26.9922 16.7129 26.9922 53.2803v110.367l-19.9639 19.9639l19.9639 19.9639v104.507c-25.7471 0 -44.748 -26.4678 -44.748 -26.4678l0.399414 2.5625l-0.422852 -2.5625
h-16.415l16.415 102.211h16.4229v-0.0625h103.652v-180.188l19.9561 -19.9639l-19.9561 -19.9639v-110.344z" />
    <glyph glyph-name="ordmasculine" unicode="&#xba;" horiz-adv-x="322" 
d="M269.118 568.323l19.9639 -19.9639l-19.9639 -19.9639v-107.617c0 -51.3994 -36.0654 -77.1621 -108.244 -77.2871c-71.9902 0 -107.993 25.7627 -107.993 77.2871v107.617l-19.9639 19.9639l19.9639 19.9639v107.993c0 51.3994 36.0029 77.0986 107.993 77.0986
c72.1553 0 108.244 -25.6992 108.244 -77.0986v-107.993zM193.837 443.375v210.181c0 16.4619 -10.8906 24.7676 -32.7119 24.8926h-0.525391c-21.6484 0 -32.4531 -8.30566 -32.4531 -24.8926v-210.181c0 -16.5869 10.8906 -24.8848 32.7041 -24.8848
c21.9932 0 32.9863 8.29785 32.9863 24.8848z" />
    <glyph glyph-name="guillemotright" unicode="&#xbb;" horiz-adv-x="661" 
d="M311.036 589.518l317.155 -241.287l-317.155 -241.287v148.525l122.034 92.7617l-122.034 92.7617v148.525zM32.9072 589.518l317.155 -241.287l-317.155 -241.287v148.525l122.011 92.7617l-122.011 92.7617v148.525z" />
    <glyph glyph-name="questiondown" unicode="&#xbf;" horiz-adv-x="505" 
d="M313.223 196.532l140.054 84.8408v-171.866c0 -95.6455 -66.9834 -143.456 -200.927 -143.456c-134.272 0 -201.421 47.834 -201.421 143.455v114.481c0 62.6816 44.2461 115.812 131.171 160.16c19.251 9.8252 25.6758 30.1025 27.8066 51.9004
c-5.71973 59.1016 -49.0879 86.6973 -49.0879 86.6973h0.0234375v30.5186h240.394v-30.4951h0.015625s-50.1846 -31.082 -50.1846 -99.0684l-0.0625 0.125c-0.87793 -52.9189 -9.87305 -110.829 -76.1045 -150.209c-43.7988 -26.0605 -83.5859 -55.3018 -83.915 -85.9453
v-35.8154c0 -30.6436 20.293 -46.0869 60.8721 -46.3145h0.979492c40.2578 0 60.3867 15.4355 60.3867 46.3145v44.6768zM274.28 585.162c-46.4785 0 -84.1348 37.6484 -84.1348 84.127c0 46.4707 37.6797 84.127 84.1348 84.127s84.127 -37.6719 84.127 -84.127
s-37.6719 -84.127 -84.127 -84.127z" />
    <glyph glyph-name="Agrave" unicode="&#xc0;" horiz-adv-x="638" 
d="M538.909 128.992c15.584 -73.9492 66.3574 -98.4834 66.3574 -98.4834v-30.5186h-237.511v30.5186s45.5547 24.8223 31.8271 98.3096l-17.167 91.2656l-140.635 -74.3252l-3.14941 -16.7676c-13.8525 -73.6357 31.7881 -98.4814 31.7881 -98.4814v-30.5186h-237.511
v30.5186s51.3994 24.5322 66.9834 98.458l43.5322 205.785l-29.2881 37.1309l44.998 37.1309l43.4697 205.574c14.5186 68.6055 -29.1865 99.0459 -29.1865 99.0459v30.5186h292.357v-30.5029s-43.7832 -30.3457 -29.2646 -98.959l43.3447 -205.66l44.998 -37.1309
l-29.4141 -37.0215zM271.234 302.463l87.0498 46.0166l-39.1924 208.496zM385.253 804.812h-76.9111l-139.507 139.201h107.57z" />
    <glyph glyph-name="Aacute" unicode="&#xc1;" horiz-adv-x="638" 
d="M538.909 128.992c15.584 -73.9492 66.3574 -98.4834 66.3574 -98.4834v-30.5186h-237.511v30.5186s45.5547 24.8223 31.8271 98.3096l-17.167 91.2656l-140.635 -74.3252l-3.14941 -16.7676c-13.8525 -73.6357 31.7881 -98.4814 31.7881 -98.4814v-30.5186h-237.511
v30.5186s51.3994 24.5322 66.9834 98.458l43.5322 205.785l-29.2881 37.1309l44.998 37.1309l43.4697 205.574c14.5186 68.6055 -29.1865 99.0459 -29.1865 99.0459v30.5186h292.357v-30.5029s-43.7832 -30.3457 -29.2646 -98.959l43.3447 -205.66l44.998 -37.1309
l-29.4141 -37.0215zM271.234 302.463l87.0498 46.0166l-39.1924 208.496zM486.015 944.015l-139.515 -139.201h-76.9111l108.871 139.201h107.555z" />
    <glyph glyph-name="Acircumflex" unicode="&#xc2;" horiz-adv-x="638" 
d="M538.909 128.984c15.584 -73.9492 66.3574 -98.4756 66.3574 -98.4756v-30.5186h-237.511v30.5186s45.5547 24.8223 31.8271 98.3096l-17.167 91.2656l-140.635 -74.3252l-3.14941 -16.7754c-13.8525 -73.6357 31.7881 -98.4736 31.7881 -98.4736v-30.5186h-237.511
v30.5186s51.3994 24.5244 66.9834 98.458l43.5322 205.785l-29.2881 37.1309l44.998 37.1309l43.4697 205.574c14.5186 68.6055 -29.1865 99.0459 -29.1865 99.0459v30.5186h292.357v-30.5029s-43.7832 -30.3457 -29.2646 -98.959l43.3447 -205.66l44.998 -37.1309
l-29.4141 -37.0215zM271.234 302.455l87.0498 46.0244l-39.1924 208.496zM318.881 875.526l-56.5713 -60.2842h-69.4287l92.6211 118.273h66.7568l92.4092 -118.273h-70.2354z" />
    <glyph glyph-name="Atilde" unicode="&#xc3;" horiz-adv-x="638" 
d="M538.909 129.008c15.584 -73.9727 66.3574 -98.499 66.3574 -98.499v-30.5186h-237.511v30.5186s45.5547 24.8223 31.8271 98.3096l-17.167 91.2656l-140.635 -74.3252l-3.14941 -16.7754c-13.8525 -73.6357 31.7881 -98.4736 31.7881 -98.4736v-30.5186h-237.511
v30.5186s51.3994 24.5244 66.9834 98.458l43.5322 205.785l-29.2881 37.1309l44.998 37.1309l43.4697 205.574c14.5186 68.6055 -29.1865 99.0459 -29.1865 99.0459v30.5186h292.357v-30.4795s-43.7832 -30.3535 -29.2646 -98.959l43.3447 -205.66l44.998 -37.1309
l-29.4141 -37.0293zM271.234 302.455l87.0498 46.0166l-39.1924 208.496zM258.549 863.131c-38.2129 0 -50.8125 -31.3711 -53.2725 -36.7539l-11.4707 -0.015625v82.1055c7.23242 10.2012 34.2246 21.7109 57.2129 21.7109c61.2871 0 91.2021 -41.3857 127.205 -41.3857
c46.792 0 52.5508 24.9941 55.1367 29.1387l10.3662 -0.015625v-71.3242c-10.8281 -12.0586 -25.1748 -27.4473 -62.2275 -27.4473c-43.5088 0 -85.96 43.9873 -122.95 43.9873z" />
    <glyph glyph-name="Adieresis" unicode="&#xc4;" horiz-adv-x="638" 
d="M538.909 129.008c15.584 -73.9727 66.3574 -98.5068 66.3574 -98.5068v-30.5186h-237.511v30.5186s45.5547 24.8301 31.8271 98.3174l-17.167 91.2656l-140.635 -74.3252l-3.14941 -16.7754c-13.8525 -73.6357 31.7881 -98.4814 31.7881 -98.4814v-30.5186h-237.511
v30.5186s51.3994 24.5322 66.9834 98.4658l43.5322 205.785l-29.2881 37.123l44.998 37.1309l43.4697 205.582c14.5186 68.6055 -29.1865 99.0381 -29.1865 99.0381v30.5186h292.334v-30.4951s-43.7598 -30.3691 -29.2412 -98.9355l43.3447 -205.66l44.998 -37.1309
l-29.4141 -37.0293zM271.234 302.455l87.0498 46.0166l-39.1924 208.496zM255.031 827.668c-25.8096 0 -46.7061 20.9043 -46.7061 46.7061c0 25.8096 20.8965 46.7061 46.7061 46.7061c25.7783 0 46.6982 -20.8965 46.6982 -46.7061
c0 -25.8018 -20.8965 -46.7061 -46.6982 -46.7061zM382.526 827.668c-25.7861 0 -46.7061 20.9043 -46.7061 46.7061c0 25.8096 20.8965 46.7061 46.7061 46.7061c25.8018 0 46.7061 -20.8965 46.7061 -46.7061c0 -25.8018 -20.9043 -46.7061 -46.7061 -46.7061z" />
    <glyph glyph-name="Aring" unicode="&#xc5;" horiz-adv-x="638" 
d="M538.909 129c15.584 -73.9492 66.3574 -98.4834 66.3574 -98.4834v-30.5186h-237.511v30.5186s45.5547 24.8223 31.8271 98.3096l-17.167 91.2656l-140.635 -74.3252l-3.14941 -16.7676c-13.8525 -73.6357 31.7881 -98.4814 31.7881 -98.4814v-30.5186h-237.511v30.5186
s51.3994 24.5088 66.9834 98.4814l43.5322 205.785l-29.2881 37.123l44.998 37.1309l43.4932 205.582c14.4951 68.6055 -29.21 99.0381 -29.21 99.0381v30.5186h292.357v-30.5186s-43.7832 -30.3457 -29.2646 -98.959l43.3447 -205.66l44.998 -37.1309l-29.4141 -37.0215z
M271.234 302.447l87.0498 46.0166l-39.1924 208.496zM318.778 793.365c-47.7324 0 -86.4072 38.6748 -86.4072 86.4072c0 47.7246 38.6982 86.3994 86.4072 86.3994c47.7012 0 86.3994 -38.6748 86.3994 -86.3994c0 -47.7324 -38.6748 -86.4072 -86.3994 -86.4072z
M318.778 921.236c-22.9102 0 -41.4717 -18.5615 -41.4717 -41.4639c0 -22.9102 18.5615 -41.4717 41.4717 -41.4717c22.9023 0 41.4639 18.5615 41.4639 41.4717c0 22.9023 -18.5615 41.4639 -41.4639 41.4639z" />
    <glyph glyph-name="AE" unicode="&#xc6;" horiz-adv-x="832" 
d="M769.039 190.028l30.5176 0.00195312l-30.5186 -190.028h-376.648v166.734h-129.211l-13.3906 -45.6641c-16.0391 -67.3994 23.7402 -90.5527 23.7402 -90.5527l-3.11035 -30.5186h-237.511l3.11035 30.5186s53.875 24.5244 76.9893 98.4736l64.4844 205.77
l-25.5117 37.1309l48.7666 37.1309l64.3984 205.55c21.0693 67.2578 -29.3506 99.0693 -29.3506 99.0693v30.5186h533.244l30.5186 -190.021l-30.542 0.0859375s-31.0352 50.0049 -99.0215 50.0049h-137.571v-162.464h54.1338
c67.752 0.148438 98.7715 50.5449 98.7715 50.5449h30.5186v-240.409h-30.5186c-0.0390625 0.0390625 -31.0977 50.1846 -99.0449 50.1846h-53.8594v-162.245h137.556c63.6846 0 99.0605 50.1846 99.0605 50.1846zM304.274 306.768l88.1162 -0.0234375v297.38h-0.854492z
" />
    <glyph glyph-name="Ccedilla" unicode="&#xc7;" 
d="M472.364 546.062l-139.994 -74.3242v95.8799c0 30.6357 -20.7949 46.0791 -61.3662 46.3066c-40.2578 0 -60.8721 -15.4355 -60.8721 -46.3066v-391.089c0 -30.8711 20.2773 -46.3066 60.8721 -46.3066c40.9082 0 61.3662 15.4355 61.3662 46.3066v103.276
l140.056 73.6201v-218.909c0 -90.3643 -60.0342 -138.073 -179.938 -143.268l-9.8252 -18.9141c109.662 0 91.4062 -155.616 -5.52344 -155.616c-10.3896 0 -34.6553 0.188477 -66.0039 35.2119l26.5303 34.3965c7.82715 -8.75977 17.1748 -20.7793 33.5273 -20.7793
c40.6729 0 46.7217 57.4873 0.250977 57.4873c-4.31738 0 -12.7871 0.125 -28.207 -7.19336l-21.1709 30.6826l20.6064 45.0605c-115.021 6.52637 -172.634 54.1104 -172.634 142.954v200.238l-37.1309 37.1309l37.1309 37.123v200.928
c0 95.6455 66.96 143.456 200.928 143.456c134.272 0 201.397 -47.8105 201.397 -143.456v-63.8965z" />
    <glyph glyph-name="Egrave" unicode="&#xc8;" 
d="M459.703 189.981l30.541 0.0410156l-30.5186 -190.028h-426.818v30.5186s50.0674 31.0352 50.1689 98.8496v205.409l-37.1309 37.1309l37.1309 37.1309v205.77c-0.101562 67.8301 -50.1689 98.8496 -50.1689 98.8496v30.5186h426.842l30.5186 -190.036h-30.5186
l-0.046875 0.274414l0.046875 -0.290039s-31.082 50.1846 -99.0684 50.1846h-137.571v-162.559h54.1104c67.752 0.140625 98.7715 50.5449 98.7715 50.5449h30.5186v-240.417h-30.5186c-0.015625 0.0625 -31.0977 50.1924 -99.0371 50.1924h-53.8438v-162.253h137.556
c63.7002 0 99.0371 50.1689 99.0371 50.1689zM369.801 804.793h-76.9346l-139.491 139.201h107.555z" />
    <glyph glyph-name="Eacute" unicode="&#xc9;" 
d="M459.703 189.981l30.542 0.0253906l-30.5186 -190.036h-426.818v30.5186s50.0674 31.0195 50.1689 98.873v205.409l-37.1309 37.1309l37.1309 37.1309v205.77c-0.101562 67.8301 -50.1689 98.8496 -50.1689 98.8496v30.5186h426.818l30.5186 -190.036h-30.5186
l-0.0390625 0.274414l0.0390625 -0.290039s-31.082 50.1846 -99.0605 50.1846h-137.556v-162.559h54.0947c67.7275 0.140625 98.7705 50.5449 98.7705 50.5449h30.5186v-240.417h-30.5029c-0.015625 0.0625 -31.0977 50.1924 -99.0371 50.1924h-53.8438v-162.253h137.556
c63.7002 0 99.0371 50.1689 99.0371 50.1689zM369.801 943.994l-139.515 -139.201h-76.9111l108.848 139.201h107.578z" />
    <glyph glyph-name="Ecircumflex" unicode="&#xca;" 
d="M459.703 189.981l30.541 0.0410156l-30.5186 -190.028h-426.818v30.5186s50.0674 31.0352 50.1689 98.8496v205.409l-37.1309 37.1309l37.1309 37.1309v205.77c-0.101562 67.8301 -50.1689 98.8496 -50.1689 98.8496v30.5186h426.842l30.5186 -190.036h-30.5186
l-0.046875 0.274414l0.046875 -0.290039s-31.082 50.1846 -99.0684 50.1846h-137.571v-162.559h54.1104c67.752 0.140625 98.7715 50.5449 98.7715 50.5449h30.5186v-240.417h-30.5186c-0.015625 0.0625 -31.0977 50.1924 -99.0371 50.1924h-53.8438v-162.253h137.556
c63.7002 0 99.0371 50.1689 99.0371 50.1689zM261.682 875.506l-56.5703 -60.2842h-69.4287l81.7764 104.303l10.8438 13.9785h66.7568l10.8438 -13.7744l81.5654 -104.507h-70.2354z" />
    <glyph glyph-name="Edieresis" unicode="&#xcb;" 
d="M459.703 189.981l30.541 0.0410156l-30.5186 -190.028h-426.818v30.5186s50.0674 31.0352 50.1689 98.8496v205.409l-37.1309 37.1309l37.1309 37.1309v205.77c-0.101562 67.8301 -50.1689 98.8496 -50.1689 98.8496v30.5186h426.842l30.5186 -190.036h-30.5186
l-0.046875 0.274414l0.046875 -0.290039s-31.082 50.1846 -99.0684 50.1846h-137.571v-162.559h54.1338c67.752 0.140625 98.7715 50.5449 98.7715 50.5449h30.4951v-240.417h-30.5186c-0.015625 0.0625 -31.0977 50.1924 -99.0371 50.1924h-53.8438v-162.253h137.556
c63.7002 0 99.0371 50.1689 99.0371 50.1689zM197.824 827.656c-25.7939 0 -46.7061 20.9121 -46.7061 46.7061s20.9121 46.7061 46.7061 46.7061c25.8018 0 46.7061 -20.9121 46.7061 -46.7061s-20.9043 -46.7061 -46.7061 -46.7061zM325.327 827.656
c-25.8018 0 -46.7061 20.9121 -46.7061 46.7061s20.9043 46.7061 46.7061 46.7061c25.7939 0 46.7061 -20.9121 46.7061 -46.7061s-20.9121 -46.7061 -46.7061 -46.7061z" />
    <glyph glyph-name="Igrave" unicode="&#xcc;" horiz-adv-x="306" 
d="M223.172 129.548c0 -67.9785 50.1924 -99.0605 50.1924 -99.0605h-0.0234375v-30.5186h-240.409v30.5186h-0.0234375s50.1924 31.0586 50.1924 99.0449v205.197l-37.1309 37.1309l37.1309 37.1309v205.558c0 67.9785 -50.1924 99.0605 -50.1924 99.0605h0.0234375
v30.5186h240.409v-30.4951h0.0234375s-50.1924 -31.082 -50.1924 -99.0684v-205.55l37.1309 -37.1309l-37.1309 -37.1309v-205.205zM261.369 804.791h-76.9346l-139.491 139.201h107.555z" />
    <glyph glyph-name="Iacute" unicode="&#xcd;" horiz-adv-x="306" 
d="M223.172 129.548c0 -67.9785 50.1924 -99.0605 50.1924 -99.0605h-0.0234375v-30.5186h-240.409v30.5186h-0.0234375s50.1924 31.0586 50.1924 99.0449v205.197l-37.1309 37.1309l37.1309 37.1309v205.558c0 67.9785 -50.1924 99.0605 -50.1924 99.0605h0.0234375
v30.5186h240.409v-30.4951h0.0234375s-50.1924 -31.082 -50.1924 -99.0684v-205.55l37.1309 -37.1309l-37.1309 -37.1309v-205.205zM261.346 943.992l-139.507 -139.201h-76.9111l108.863 139.201h107.555z" />
    <glyph glyph-name="Icircumflex" unicode="&#xce;" horiz-adv-x="317" 
d="M279.014 713.636c0 0 -50.1846 -31.082 -50.1846 -99.0684l0.015625 -205.55l37.1309 -37.1309l-37.1309 -37.1309v-205.221c0 -67.9629 50.1924 -99.0449 50.1924 -99.0449h-0.0234375v-30.5186h-240.409v30.5186h-0.0234375s50.1924 31.0586 50.1924 99.0449v205.197
l-37.1309 37.1309l37.1309 37.1309v205.558c0 67.9785 -50.1924 99.0605 -50.1924 99.0605h0.0234375v30.5186h240.394v-30.4951h0.015625zM158.899 875.505l-56.5703 -60.2842h-69.4209l81.792 104.303l10.8438 13.9785h66.7334l10.8516 -13.7744l81.5576 -104.507
h-70.2354z" />
    <glyph glyph-name="Idieresis" unicode="&#xcf;" horiz-adv-x="306" 
d="M223.148 129.548c0 -67.9785 50.1924 -99.0605 50.2158 -99.0605h-0.0234375v-30.5186h-240.409v30.5186h-0.0234375s50.1924 31.0586 50.1924 99.0449v205.197l-37.1309 37.1309l37.1309 37.1309v205.558c0 67.9785 -50.1924 99.0605 -50.1924 99.0605h0.0234375
v30.5186h240.386v-30.4951h0.0234375s-50.1924 -31.082 -50.1924 -99.0684v-205.55l37.1309 -37.1309l-37.1309 -37.1309v-205.205zM89.377 827.654c-25.7939 0 -46.7061 20.9121 -46.7061 46.7061s20.9121 46.7061 46.7061 46.7061s46.7061 -20.9121 46.7061 -46.7061
s-20.9121 -46.7061 -46.7061 -46.7061zM216.872 827.654c-25.7939 0 -46.7061 20.9121 -46.7061 46.7061s20.9121 46.7061 46.7061 46.7061s46.7061 -20.9121 46.7061 -46.7061s-20.9121 -46.7061 -46.7061 -46.7061z" />
    <glyph glyph-name="Eth" unicode="&#xd0;" horiz-adv-x="556" 
d="M485.332 409.024l37.1553 -37.1152l-37.1309 -37.1309v-191.329c0 -95.4102 -65.166 -143.221 -195.482 -143.448h-257.06v30.5186s50.1924 31.0586 50.1924 99.0371v191.933h-54.7998v101.177h54.7764v191.909c0 67.9863 -50.1846 99.0684 -50.1846 99.0684v30.5186
h265.96c124.369 -0.235352 186.573 -48.1719 186.573 -143.793v-191.345zM345.277 185.798l0.0234375 372.182c0 31.1064 -20.2773 46.6436 -60.8721 46.6436h-61.3662v-181.958h54.5723v-101.177h-54.5723v-181.997h61.3506c40.5713 0 60.8643 15.4355 60.8643 46.3066z
" />
    <glyph glyph-name="Ntilde" unicode="&#xd1;" horiz-adv-x="650" 
d="M265.099 863.117c-38.2129 0 -50.8125 -31.3711 -53.2725 -36.7539l-11.4707 -0.0234375v82.1055c7.23242 10.2012 34.2246 21.7188 57.2129 21.7188c61.2715 0 91.2021 -41.3857 127.205 -41.3857c46.792 0 52.5508 24.9863 55.1367 29.1387l10.3662 -0.0234375
v-71.3164c-10.8047 -12.0586 -25.1748 -27.4551 -62.2275 -27.4551c-43.5322 0 -85.9834 43.9951 -122.95 43.9951zM567.531 129.55c0 -67.9785 50.1846 -99.0605 50.208 -99.0371h-0.0234375v-30.5186h-259.183l-135.362 487.894v-358.354
c0 -67.9629 50.1924 -99.0449 50.1924 -99.0449h-0.0234375v-30.5186h-240.409v30.5186h-0.0234375s50.1924 31.0586 50.1924 99.0449v205.197l-37.1309 37.1309l37.1309 37.1309v205.558c0 67.9785 -50.1924 99.0605 -50.1924 99.0605h0.0234375v30.5186h259.183
l135.362 -487.894v358.314c0 67.9785 -50.1924 99.0605 -50.1924 99.0605h0.0234375v30.5186h240.394v-30.4951h0.015625s-50.1846 -31.082 -50.1846 -99.0684v-205.55l37.1309 -37.1309l-37.1309 -37.1309v-205.205z" />
    <glyph glyph-name="Ograve" unicode="&#xd2;" horiz-adv-x="542" 
d="M364.959 804.791h-76.9346l-139.491 139.201h107.555zM472.388 409.017l37.1309 -37.1309l-37.1309 -37.1309v-200.238c0 -95.6455 -67.1484 -143.582 -201.421 -143.81c-133.943 0 -200.927 47.9365 -200.927 143.809v200.238l-37.1309 37.1309l37.1309 37.1309v200.92
c0 95.6455 66.9834 143.456 200.927 143.456c134.272 0 201.421 -47.834 201.421 -143.455v-200.92zM332.332 176.506v391.089c0 30.6436 -20.293 46.0791 -60.8721 46.3066h-0.979492c-40.2578 0 -60.3867 -15.4355 -60.3867 -46.3066v-391.089
c0 -30.8711 20.293 -46.3066 60.8721 -46.3066c40.9004 0 61.3662 15.4355 61.3662 46.3066z" />
    <glyph glyph-name="Oacute" unicode="&#xd3;" horiz-adv-x="542" 
d="M408.1 943.992l-139.491 -139.201h-76.9346l108.871 139.201h107.555zM472.388 409.017l37.1318 -37.1309l-37.1309 -37.1309v-200.238c0 -95.6455 -67.1484 -143.582 -201.421 -143.81c-133.968 0 -200.928 47.9365 -200.928 143.809v200.238l-37.1309 37.1309
l37.1309 37.1309v200.92c0 95.6455 66.9834 143.456 200.927 143.456c134.272 0 201.421 -47.834 201.421 -143.455v-200.92zM332.333 176.506l-0.0234375 391.089c0 30.6436 -20.2695 46.0791 -60.8643 46.3066h-0.979492c-40.2656 0 -60.3711 -15.4355 -60.3711 -46.3066
v-391.089c0 -30.8711 20.293 -46.3066 60.8721 -46.3066c40.9004 0 61.3662 15.4355 61.3662 46.3066z" />
    <glyph glyph-name="Ocircumflex" unicode="&#xd4;" horiz-adv-x="542" 
d="M271.319 875.504l-56.5703 -60.2842h-69.4287l81.7764 104.303l10.8438 13.9785h66.7568l10.8438 -13.7744l81.5654 -104.507h-70.2354zM472.388 409.017l37.1309 -37.1309l-37.1309 -37.1309v-200.238c0 -95.6455 -67.1484 -143.582 -201.421 -143.81
c-133.943 0 -200.927 47.9365 -200.927 143.809v200.238l-37.1309 37.1309l37.1309 37.1309v200.92c0 95.6455 66.9834 143.456 200.927 143.456c134.272 0 201.421 -47.834 201.421 -143.455v-200.92zM332.332 176.506v391.089c0 30.6436 -20.293 46.0791 -60.8721 46.3066
h-0.979492c-40.2578 0 -60.3867 -15.4355 -60.3867 -46.3066v-391.089c0 -30.8711 20.293 -46.3066 60.8721 -46.3066c40.9004 0 61.3662 15.4355 61.3662 46.3066z" />
    <glyph glyph-name="Otilde" unicode="&#xd5;" horiz-adv-x="542" 
d="M211.012 863.117c-38.2129 0 -50.835 -31.3711 -53.2793 -36.7539l-11.4707 -0.0234375v82.1055c7.24023 10.2012 34.2324 21.7188 57.2207 21.7188c61.2637 0 91.2021 -41.3857 127.205 -41.3857c46.7842 0 52.543 24.9863 55.1289 29.1387l10.374 -0.0234375v-71.3164
c-10.8281 -12.0586 -25.1826 -27.4551 -62.2275 -27.4551c-43.541 0 -85.9844 43.9951 -122.951 43.9951zM472.39 409.018l37.1318 -37.1309l-37.1309 -37.1309v-200.238c0 -95.6455 -67.1484 -143.582 -201.421 -143.81c-133.968 0 -200.928 47.9365 -200.928 143.809
v200.238l-37.1309 37.1309l37.1309 37.1309v200.92c0 95.6455 66.9834 143.456 200.927 143.456c134.272 0 201.421 -47.834 201.421 -143.455v-200.92zM332.335 176.507v391.089c0 30.6436 -20.2773 46.0791 -60.8721 46.3066h-0.979492
c-40.2812 0 -60.3867 -15.4355 -60.3867 -46.3066v-391.089c0 -30.8711 20.293 -46.3066 60.8721 -46.3066c40.9004 0 61.3662 15.4355 61.3662 46.3066z" />
    <glyph glyph-name="Odieresis" unicode="&#xd6;" horiz-adv-x="542" 
d="M207.462 827.654c-25.7939 0 -46.7061 20.9121 -46.7061 46.7061s20.9121 46.7061 46.7061 46.7061c25.8018 0 46.7061 -20.9121 46.7061 -46.7061s-20.9043 -46.7061 -46.7061 -46.7061zM334.965 827.654c-25.8018 0 -46.7061 20.9121 -46.7061 46.7061
s20.9043 46.7061 46.7061 46.7061c25.7939 0 46.7061 -20.9121 46.7061 -46.7061s-20.9121 -46.7061 -46.7061 -46.7061zM472.388 409.017l37.1309 -37.1309l-37.1309 -37.1309v-200.238c0 -95.6455 -67.1484 -143.582 -201.421 -143.81
c-133.943 0 -200.927 47.9365 -200.927 143.809v200.238l-37.1309 37.1309l37.1309 37.1309v200.92c0 95.6455 66.9834 143.456 200.927 143.456c134.272 0 201.421 -47.834 201.421 -143.455v-200.92zM332.332 176.506v391.089c0 30.6436 -20.293 46.0791 -60.8721 46.3066
h-0.979492c-40.2578 0 -60.3867 -15.4355 -60.3867 -46.3066v-391.089c0 -30.8711 20.293 -46.3066 60.8721 -46.3066c40.9004 0 61.3662 15.4355 61.3662 46.3066z" />
    <glyph glyph-name="multiply" unicode="&#xd7;" horiz-adv-x="629" 
d="M469.262 316.466c48.0615 -48.0615 105.525 -34.5459 105.525 -34.5459l21.5547 -21.5938l-169.994 -169.986l-21.5703 21.5703l-0.015625 -0.0234375s13.5156 57.4717 -34.5459 105.533l-55.5908 55.5908l-55.5908 -55.5908
c-48.0615 -48.0615 -34.5459 -105.533 -34.5459 -105.533l-0.0234375 0.0234375l-21.5703 -21.5703l-169.986 169.986l21.5703 21.5703l-0.0234375 0.0234375s57.4717 -13.5156 105.533 34.5459l55.5908 55.5908l-55.5908 55.5908
c-48.0615 48.0615 -105.533 34.5459 -105.533 34.5459l0.0234375 0.015625l-21.5703 21.5703l169.986 169.994l21.5703 -21.5703l0.0234375 0.015625s-13.5156 -57.4639 34.5459 -105.525l55.5908 -55.5908l55.5908 55.5908
c48.0615 48.0615 34.5459 105.525 34.5459 105.525l0.015625 -0.015625l21.5703 21.5703l169.994 -169.994l-21.5703 -21.5703l0.015625 -0.015625s-57.4639 13.5156 -105.525 -34.5459l-55.5908 -55.5908z" />
    <glyph glyph-name="Oslash" unicode="&#xd8;" horiz-adv-x="542" 
d="M472.364 409.017l37.1562 -37.1133l-37.1309 -37.1309v-200.23c0 -95.6455 -67.1484 -143.582 -201.421 -143.81c-24.7676 0 -47.1924 1.64551 -67.3604 4.9209l-14.793 -59.1406h-53.7578l18.1699 72.6562c-55.3564 22.0088 -83.1875 63.7236 -83.1875 125.348v200.238
l-37.1309 37.1309l37.1309 37.1309v200.92c0 95.6455 66.9834 143.456 200.927 143.456c24.6494 0 47.0117 -1.64551 67.1484 -4.88184l15.4746 61.9375l53.7578 0.015625l-18.8359 -75.3281c55.8027 -21.8994 83.8525 -63.5596 83.8525 -125.199v-200.92zM210.072 567.597
l0.0244141 -331.031l93.1377 372.52c-8.7207 3.02441 -19.1494 4.75586 -31.7881 4.81836h-0.979492c-40.2812 0 -60.3945 -15.4355 -60.3945 -46.3066zM332.312 176.509l-0.000976562 333.93l-93.8428 -375.316c8.82227 -3.16504 19.502 -4.91992 32.4775 -4.91992
c40.9082 0 61.3662 15.4355 61.3662 46.3066z" />
    <glyph glyph-name="Ugrave" unicode="&#xd9;" horiz-adv-x="569" 
d="M485.449 614.566l-0.00195312 -205.572l37.1309 -37.1309l-37.1309 -37.1309v-200.238c0 -95.6377 -67.1484 -143.582 -201.429 -143.81c-133.959 0 -200.919 47.9365 -200.919 143.809v200.238l-37.1309 37.1309l37.1309 37.1309v205.558
c0 67.9785 -50.1924 99.0605 -50.1924 99.0605h0.0234375v30.5186h240.386v-30.5186h0.0234375s-50.1924 -31.082 -50.1924 -99.0449v-438.062c0 -30.8711 20.3008 -46.3066 60.8721 -46.3066c40.9082 0 61.374 15.4355 61.374 46.3066v438.062
c0 67.9629 -50.1924 99.0449 -50.1924 99.0449h0.0234375v30.5186h240.394v-30.5186h0.015625s-50.1846 -31.082 -50.1846 -99.0449zM361.203 804.792h-76.9346l-139.491 139.201h107.555z" />
    <glyph glyph-name="Uacute" unicode="&#xda;" horiz-adv-x="569" 
d="M485.449 614.566l-0.00195312 -205.572l37.1309 -37.1309l-37.1309 -37.1309v-200.238c0 -95.6377 -67.1484 -143.582 -201.429 -143.81c-133.959 0 -200.919 47.9365 -200.919 143.809v200.238l-37.1309 37.1309l37.1309 37.1309v205.558
c0 67.9785 -50.1924 99.0605 -50.1924 99.0605h0.0234375v30.5186h240.386v-30.5186h0.0234375s-50.1924 -31.082 -50.1924 -99.0449v-438.062c0 -30.8711 20.3008 -46.3066 60.8721 -46.3066c40.9082 0 61.374 15.4355 61.374 46.3066v438.062
c0 67.9629 -50.1924 99.0449 -50.1924 99.0449h0.0234375v30.5186h240.409v-30.5186s-50.1846 -31.082 -50.1846 -99.0449zM460.68 943.994l-139.507 -139.201h-76.9111l108.863 139.201h107.555z" />
    <glyph glyph-name="Ucircumflex" unicode="&#xdb;" horiz-adv-x="569" 
d="M485.449 614.566l-0.00195312 -205.572l37.1309 -37.1309l-37.1309 -37.1309v-200.238c0 -95.6377 -67.1484 -143.582 -201.429 -143.81c-133.959 0 -200.919 47.9365 -200.919 143.809v200.238l-37.1309 37.1309l37.1309 37.1309v205.558
c0 67.9785 -50.1924 99.0605 -50.1924 99.0605h0.0234375v30.5186h240.386v-30.5186h0.0234375s-50.1924 -31.082 -50.1924 -99.0449v-438.062c0 -30.8711 20.3008 -46.3066 60.8721 -46.3066c40.9082 0 61.374 15.4355 61.374 46.3066v438.062
c0 67.9629 -50.1924 99.0449 -50.1924 99.0449h0.0234375v30.5186h240.409v-30.5186s-50.1846 -31.082 -50.1846 -99.0449zM284.371 875.506l-56.5469 -60.2842h-69.4443l81.7686 104.303l10.8516 13.9785h66.7725l10.8438 -13.7744l81.542 -104.507h-70.2119z" />
    <glyph glyph-name="Udieresis" unicode="&#xdc;" horiz-adv-x="569" 
d="M485.449 614.566l-0.00195312 -205.572l37.1309 -37.1309l-37.1309 -37.1309v-200.238c0 -95.6377 -67.1484 -143.582 -201.429 -143.81c-133.959 0 -200.919 47.9365 -200.919 143.809v200.238l-37.1309 37.1309l37.1309 37.1309v205.558
c0 67.9785 -50.1924 99.0605 -50.1924 99.0605h0.0234375v30.5186h240.386v-30.5186h0.0234375s-50.1924 -31.082 -50.1924 -99.0449v-438.062c0 -30.8711 20.3008 -46.3066 60.8721 -46.3066c40.9082 0 61.374 15.4355 61.374 46.3066v438.062
c0 67.9629 -50.1924 99.0449 -50.1924 99.0449h0.0234375v30.5186h240.409v-30.5186s-50.1846 -31.082 -50.1846 -99.0449zM220.521 827.655c-25.7939 0 -46.7061 20.9121 -46.7061 46.7061s20.9121 46.7061 46.7061 46.7061s46.7061 -20.9121 46.7061 -46.7061
s-20.9121 -46.7061 -46.7061 -46.7061zM348.017 827.655c-25.7939 0 -46.7061 20.9121 -46.7061 46.7061s20.9121 46.7061 46.7061 46.7061s46.7061 -20.9121 46.7061 -46.7061s-20.9121 -46.7061 -46.7061 -46.7061z" />
    <glyph glyph-name="Yacute" unicode="&#xdd;" horiz-adv-x="624" 
d="M464.819 943.992l-139.491 -139.201h-76.9346l108.871 139.201h107.555zM591.625 744.131l0.00195312 -30.4951c0.0234375 0 -40.9316 -4.69336 -85.3184 -99.085v0.078125l-104.217 -221.174l21.5859 -21.5938l-40.8613 -40.8691v-201.46
c0 -67.9629 50.1924 -99.0449 50.1924 -99.0449h-0.0234375v-30.5186h-240.417v30.5186h-0.015625s50.1846 31.0586 50.1846 99.0449v201.46l-40.8613 40.8691l20.9434 20.9434l-104.507 221.824v-0.078125c-44.457 94.3682 -85.4043 99.0615 -85.4043 99.0615h0.0234375
v30.5186h240.409v-30.5186h0.0234375s-42.8271 -32.2109 -8.49316 -99.0615l47.3955 -92.3311l47.3955 92.3311c34.334 66.8506 -8.46973 99.0615 -8.46973 99.0615h0.0234375v30.5186h240.409z" />
    <glyph glyph-name="Thorn" unicode="&#xde;" horiz-adv-x="548" 
d="M328.729 602.932c124.385 -0.235352 186.564 -48.1699 186.549 -143.815v-154.151c0 -70.5723 -44.708 -116.063 -134.108 -136.49c-21.4453 -4.85742 -158.021 -7.30176 -158.021 -7.30176v-31.9365c0.172852 -67.752 50.1699 -98.748 50.1699 -98.748v-30.5186
h-240.386v30.5186h-0.0234375s50.1924 31.082 50.208 99.0215v205.221l-37.1309 37.1309l37.1309 37.1309v109.177h-0.0390625v96.6875c-0.164062 67.7598 -50.1689 98.7559 -50.1689 98.7559v30.5186h240.394v-30.5186h0.015625s-50.1846 -31.0586 -50.1846 -99.0449
v-11.6357h105.596zM375.245 347.167l0.0136719 69.6084c0 31.0986 -20.293 46.667 -60.8643 46.667h-91.2256v-162.59h73.8633c19.4629 0 32.8379 0.94043 40.0938 2.79785c25.4102 7.17676 38.1191 21.6953 38.1191 43.5166z" />
    <glyph glyph-name="germandbls" unicode="&#xdf;" horiz-adv-x="585" 
d="M474.433 428.855c62.4316 -13.5312 77.8057 -60.2607 77.79 -128.412v-174.303c0 -69.6553 -56.4688 -126.14 -126.14 -126.14h-166.923v139.468l108.158 -0.0234375c24.7598 -0.015625 44.8496 20.0273 44.873 44.7871v51.4619c0 75.1797 0 86.2588 -79.168 86.2588
h-73.8477v114.755l69.8594 36.9199c10.0371 5.32031 16.3135 15.749 16.2979 27.0947l-0.125 59.1797c-0.046875 24.7207 -20.1133 44.748 -44.834 44.748h-35.4385c-23.0674 0 -41.7861 -18.6875 -41.7861 -41.7627v-562.909h-190.24v30.5186
s50.1924 31.082 50.1924 99.0605v205.205l-37.1309 37.1309l37.1309 37.1309v217.029c0 65.2051 52.8799 118.085 118.085 118.085h158.123c69.6475 0 126.14 -56.4688 126.14 -126.14v-150.884c0 -14.2051 -4.40332 -26.9688 -11.0166 -38.2598z" />
    <glyph glyph-name="agrave" unicode="&#xe0;" horiz-adv-x="638" 
d="M538.909 128.992c15.584 -73.9492 66.3574 -98.4834 66.3574 -98.4834v-30.5186h-237.511v30.5186s45.5547 24.8223 31.8271 98.3096l-17.167 91.2656l-140.635 -74.3252l-3.14941 -16.7676c-13.8525 -73.6357 31.7881 -98.4814 31.7881 -98.4814v-30.5186h-237.511
v30.5186s51.3994 24.5322 66.9834 98.458l43.5322 205.785l-29.2881 37.1309l44.998 37.1309l43.4697 205.574c14.5186 68.6055 -29.1865 99.0459 -29.1865 99.0459v30.5186h292.357v-30.5029s-43.7832 -30.3457 -29.2646 -98.959l43.3447 -205.66l44.998 -37.1309
l-29.4141 -37.0215zM271.234 302.463l87.0498 46.0166l-39.1924 208.496zM385.253 804.812h-76.9111l-139.507 139.201h107.57z" />
    <glyph glyph-name="aacute" unicode="&#xe1;" horiz-adv-x="638" 
d="M538.909 128.992c15.584 -73.9492 66.3574 -98.4834 66.3574 -98.4834v-30.5186h-237.511v30.5186s45.5547 24.8223 31.8271 98.3096l-17.167 91.2656l-140.635 -74.3252l-3.14941 -16.7676c-13.8525 -73.6357 31.7881 -98.4814 31.7881 -98.4814v-30.5186h-237.511
v30.5186s51.3994 24.5322 66.9834 98.458l43.5322 205.785l-29.2881 37.1309l44.998 37.1309l43.4697 205.574c14.5186 68.6055 -29.1865 99.0459 -29.1865 99.0459v30.5186h292.357v-30.5029s-43.7832 -30.3457 -29.2646 -98.959l43.3447 -205.66l44.998 -37.1309
l-29.4141 -37.0215zM271.234 302.463l87.0498 46.0166l-39.1924 208.496zM486.015 944.015l-139.515 -139.201h-76.9111l108.871 139.201h107.555z" />
    <glyph glyph-name="acircumflex" unicode="&#xe2;" horiz-adv-x="638" 
d="M538.909 128.984c15.584 -73.9492 66.3574 -98.4756 66.3574 -98.4756v-30.5186h-237.511v30.5186s45.5547 24.8223 31.8271 98.3096l-17.167 91.2656l-140.635 -74.3252l-3.14941 -16.7754c-13.8525 -73.6357 31.7881 -98.4736 31.7881 -98.4736v-30.5186h-237.511
v30.5186s51.3994 24.5244 66.9834 98.458l43.5322 205.785l-29.2881 37.1309l44.998 37.1309l43.4697 205.574c14.5186 68.6055 -29.1865 99.0459 -29.1865 99.0459v30.5186h292.357v-30.5029s-43.7832 -30.3457 -29.2646 -98.959l43.3447 -205.66l44.998 -37.1309
l-29.4141 -37.0215zM271.234 302.455l87.0498 46.0244l-39.1924 208.496zM318.881 875.526l-56.5713 -60.2842h-69.4287l92.6211 118.273h66.7568l92.4092 -118.273h-70.2354z" />
    <glyph glyph-name="atilde" unicode="&#xe3;" horiz-adv-x="638" 
d="M538.909 129.008c15.584 -73.9727 66.3574 -98.499 66.3574 -98.499v-30.5186h-237.511v30.5186s45.5547 24.8223 31.8271 98.3096l-17.167 91.2656l-140.635 -74.3252l-3.14941 -16.7754c-13.8525 -73.6357 31.7881 -98.4736 31.7881 -98.4736v-30.5186h-237.511
v30.5186s51.3994 24.5244 66.9834 98.458l43.5322 205.785l-29.2881 37.1309l44.998 37.1309l43.4697 205.574c14.5186 68.6055 -29.1865 99.0459 -29.1865 99.0459v30.5186h292.357v-30.4795s-43.7832 -30.3535 -29.2646 -98.959l43.3447 -205.66l44.998 -37.1309
l-29.4141 -37.0293zM271.234 302.455l87.0498 46.0166l-39.1924 208.496zM258.549 863.131c-38.2129 0 -50.8125 -31.3711 -53.2725 -36.7539l-11.4707 -0.015625v82.1055c7.23242 10.2012 34.2246 21.7109 57.2129 21.7109c61.2871 0 91.2021 -41.3857 127.205 -41.3857
c46.792 0 52.5508 24.9941 55.1367 29.1387l10.3662 -0.015625v-71.3242c-10.8281 -12.0586 -25.1748 -27.4473 -62.2275 -27.4473c-43.5088 0 -85.96 43.9873 -122.95 43.9873z" />
    <glyph glyph-name="adieresis" unicode="&#xe4;" horiz-adv-x="638" 
d="M538.909 129.008c15.584 -73.9727 66.3574 -98.5068 66.3574 -98.5068v-30.5186h-237.511v30.5186s45.5547 24.8301 31.8271 98.3174l-17.167 91.2656l-140.635 -74.3252l-3.14941 -16.7754c-13.8525 -73.6357 31.7881 -98.4814 31.7881 -98.4814v-30.5186h-237.511
v30.5186s51.3994 24.5322 66.9834 98.4658l43.5322 205.785l-29.2881 37.123l44.998 37.1309l43.4697 205.582c14.5186 68.6055 -29.1865 99.0381 -29.1865 99.0381v30.5186h292.334v-30.4951s-43.7598 -30.3691 -29.2412 -98.9355l43.3447 -205.66l44.998 -37.1309
l-29.4141 -37.0293zM271.234 302.455l87.0498 46.0166l-39.1924 208.496zM255.031 827.668c-25.8096 0 -46.7061 20.9043 -46.7061 46.7061c0 25.8096 20.8965 46.7061 46.7061 46.7061c25.7783 0 46.6982 -20.8965 46.6982 -46.7061
c0 -25.8018 -20.8965 -46.7061 -46.6982 -46.7061zM382.526 827.668c-25.7861 0 -46.7061 20.9043 -46.7061 46.7061c0 25.8096 20.8965 46.7061 46.7061 46.7061c25.8018 0 46.7061 -20.8965 46.7061 -46.7061c0 -25.8018 -20.9043 -46.7061 -46.7061 -46.7061z" />
    <glyph glyph-name="aring" unicode="&#xe5;" horiz-adv-x="638" 
d="M538.909 129c15.584 -73.9492 66.3574 -98.4834 66.3574 -98.4834v-30.5186h-237.511v30.5186s45.5547 24.8223 31.8271 98.3096l-17.167 91.2656l-140.635 -74.3252l-3.14941 -16.7676c-13.8525 -73.6357 31.7881 -98.4814 31.7881 -98.4814v-30.5186h-237.511v30.5186
s51.3994 24.5088 66.9834 98.4814l43.5322 205.785l-29.2881 37.123l44.998 37.1309l43.4932 205.582c14.4951 68.6055 -29.21 99.0381 -29.21 99.0381v30.5186h292.357v-30.5186s-43.7832 -30.3457 -29.2646 -98.959l43.3447 -205.66l44.998 -37.1309l-29.4141 -37.0215z
M271.234 302.447l87.0498 46.0166l-39.1924 208.496zM318.778 793.365c-47.7324 0 -86.4072 38.6748 -86.4072 86.4072c0 47.7246 38.6982 86.3994 86.4072 86.3994c47.7012 0 86.3994 -38.6748 86.3994 -86.3994c0 -47.7324 -38.6748 -86.4072 -86.3994 -86.4072z
M318.778 921.236c-22.9102 0 -41.4717 -18.5615 -41.4717 -41.4639c0 -22.9102 18.5615 -41.4717 41.4717 -41.4717c22.9023 0 41.4639 18.5615 41.4639 41.4717c0 22.9023 -18.5615 41.4639 -41.4639 41.4639z" />
    <glyph glyph-name="ae" unicode="&#xe6;" horiz-adv-x="832" 
d="M769.039 190.028l30.5176 0.00195312l-30.5186 -190.028h-376.648v166.734h-129.211l-13.3906 -45.6641c-16.0391 -67.3994 23.7402 -90.5527 23.7402 -90.5527l-3.11035 -30.5186h-237.511l3.11035 30.5186s53.875 24.5244 76.9893 98.4736l64.4844 205.77
l-25.5117 37.1309l48.7666 37.1309l64.3984 205.55c21.0693 67.2578 -29.3506 99.0693 -29.3506 99.0693v30.5186h533.244l30.5186 -190.021l-30.542 0.0859375s-31.0352 50.0049 -99.0215 50.0049h-137.571v-162.464h54.1338
c67.752 0.148438 98.7715 50.5449 98.7715 50.5449h30.5186v-240.409h-30.5186c-0.0390625 0.0390625 -31.0977 50.1846 -99.0449 50.1846h-53.8594v-162.245h137.556c63.6846 0 99.0605 50.1846 99.0605 50.1846zM304.274 306.768l88.1162 -0.0234375v297.38h-0.854492z
" />
    <glyph glyph-name="ccedilla" unicode="&#xe7;" 
d="M472.364 546.062l-139.994 -74.3242v95.8799c0 30.6357 -20.7949 46.0791 -61.3662 46.3066c-40.2578 0 -60.8721 -15.4355 -60.8721 -46.3066v-391.089c0 -30.8711 20.2773 -46.3066 60.8721 -46.3066c40.9082 0 61.3662 15.4355 61.3662 46.3066v103.276
l140.056 73.6201v-218.909c0 -90.3643 -60.0342 -138.073 -179.938 -143.268l-9.8252 -18.9141c109.662 0 91.4062 -155.616 -5.52344 -155.616c-10.3896 0 -34.6553 0.188477 -66.0039 35.2119l26.5303 34.3965c7.82715 -8.75977 17.1748 -20.7793 33.5273 -20.7793
c40.6729 0 46.7217 57.4873 0.250977 57.4873c-4.31738 0 -12.7871 0.125 -28.207 -7.19336l-21.1709 30.6826l20.6064 45.0605c-115.021 6.52637 -172.634 54.1104 -172.634 142.954v200.238l-37.1309 37.1309l37.1309 37.123v200.928
c0 95.6455 66.96 143.456 200.928 143.456c134.272 0 201.397 -47.8105 201.397 -143.456v-63.8965z" />
    <glyph glyph-name="egrave" unicode="&#xe8;" 
d="M459.727 189.981l30.5166 0.0410156l-30.5186 -190.028h-426.818v30.5186s50.0674 31.0352 50.1689 98.8496v205.409l-37.1309 37.1309l37.1309 37.1309v205.77c-0.101562 67.8301 -50.1689 98.8496 -50.1689 98.8496v30.5186h426.818l30.5186 -190.036h-30.5186
l-0.0390625 0.274414l0.0390625 -0.290039s-31.082 50.1846 -99.0605 50.1846h-137.556v-162.559h54.1104c67.7363 0.140625 98.7715 50.5449 98.7715 50.5449h30.5186v-240.417h-30.4951c-0.0234375 0.0625 -31.1055 50.1924 -99.0449 50.1924h-53.8359v-162.253h137.548
c63.709 0 99.0459 50.1689 99.0459 50.1689zM369.815 804.793h-76.9268l-139.491 139.201h107.555z" />
    <glyph glyph-name="eacute" unicode="&#xe9;" 
d="M459.727 189.981l30.5166 0.0410156l-30.5186 -190.028h-426.818v30.5186s50.083 31.0352 50.1924 98.8496v205.409l-37.1309 37.1309l37.1309 37.1309v205.77c-0.125 67.8301 -50.1924 98.8496 -50.1924 98.8496v30.5186h426.818l30.5186 -190.036h-30.5186
l-0.0390625 0.274414l0.0390625 -0.290039s-31.082 50.1846 -99.0605 50.1846h-137.556v-162.559h54.1104c67.7363 0.140625 98.7715 50.5449 98.7715 50.5449h30.5186v-240.417h-30.4951c-0.0234375 0.0625 -31.1055 50.1924 -99.0449 50.1924h-53.8359v-162.253h137.548
c63.709 0 99.0459 50.1689 99.0459 50.1689zM369.799 943.994l-139.515 -139.201h-76.9111l108.871 139.201h107.555z" />
    <glyph glyph-name="ecircumflex" unicode="&#xea;" 
d="M459.703 189.981l30.542 0.0410156l-30.5186 -190.028h-426.818v30.5186s50.0674 31.0352 50.1689 98.8496v205.409l-37.1309 37.1309l37.1309 37.1309v205.77c-0.101562 67.8301 -50.1689 98.8496 -50.1689 98.8496v30.5186h426.795l30.5186 -190.036h-30.5186
l-0.0390625 0.274414l0.0390625 -0.290039s-31.082 50.1846 -99.0605 50.1846h-137.556v-162.559h54.1182c67.7275 0.140625 98.7705 50.5449 98.7705 50.5449h30.5186v-240.417h-30.5029c-0.015625 0.0625 -31.0977 50.1924 -99.0371 50.1924h-53.8438v-162.253h137.556
c63.7002 0 99.0371 50.1689 99.0371 50.1689zM261.683 875.506l-56.5703 -60.2842h-69.4287l81.7764 104.303l10.8438 13.9785h66.7568l10.8438 -13.7744l81.5654 -104.507h-70.2354z" />
    <glyph glyph-name="edieresis" unicode="&#xeb;" 
d="M459.703 189.981l30.542 0.0410156l-30.5186 -190.028h-426.818v30.5186s50.0674 31.0352 50.1689 98.8496v205.409l-37.1309 37.1309l37.1309 37.1309v205.77c-0.101562 67.8301 -50.1689 98.8496 -50.1689 98.8496v30.5186h426.795l30.5186 -190.036h-30.5186
l-0.0390625 0.274414l0.0390625 -0.290039s-31.082 50.1846 -99.0605 50.1846h-137.556v-162.559h54.1182c67.7275 0.140625 98.7705 50.5449 98.7705 50.5449h30.5186v-240.417h-30.5029c-0.015625 0.0625 -31.0977 50.1924 -99.0371 50.1924h-53.8438v-162.253h137.556
c63.7002 0 99.0371 50.1689 99.0371 50.1689zM197.825 827.656c-25.7939 0 -46.7061 20.9121 -46.7061 46.7061s20.9121 46.7061 46.7061 46.7061c25.8018 0 46.7061 -20.9121 46.7061 -46.7061s-20.9043 -46.7061 -46.7061 -46.7061zM325.328 827.656
c-25.8018 0 -46.7061 20.9121 -46.7061 46.7061s20.9043 46.7061 46.7061 46.7061c25.7939 0 46.7061 -20.9121 46.7061 -46.7061s-20.9121 -46.7061 -46.7061 -46.7061z" />
    <glyph glyph-name="igrave" unicode="&#xec;" horiz-adv-x="306" 
d="M223.172 129.548c0 -67.9785 50.1924 -99.0605 50.1924 -99.084h-0.0234375v-30.5186h-240.409v30.5186h-0.0234375s50.1924 31.0586 50.1924 99.0449v205.221l-37.1309 37.1309l37.1309 37.1309v205.558c0 67.9785 -50.1924 99.0605 -50.1924 99.0605h0.0234375v30.5186
h240.409v-30.4951h0.0234375s-50.1924 -31.082 -50.1924 -99.0684v-205.55l37.1309 -37.1309l-37.1309 -37.1309v-205.205zM261.346 804.791h-76.9111l-139.507 139.201h107.547z" />
    <glyph glyph-name="iacute" unicode="&#xed;" horiz-adv-x="306" 
d="M223.172 129.548c0 -67.9785 50.1924 -99.0605 50.1924 -99.084h-0.0234375v-30.5186h-240.409v30.5186h-0.0234375s50.1924 31.0586 50.1924 99.0449v205.221l-37.1309 37.1309l37.1309 37.1309v205.558c0 67.9785 -50.1924 99.0605 -50.1924 99.0605h0.0234375v30.5186
h240.409v-30.4951h0.0234375s-50.1924 -31.082 -50.1924 -99.0684v-205.55l37.1309 -37.1309l-37.1309 -37.1309v-205.205zM261.346 943.992l-139.491 -139.201h-76.9268l108.863 139.201h107.555z" />
    <glyph glyph-name="icircumflex" unicode="&#xee;" horiz-adv-x="317" 
d="M279.014 713.636c0 0 -50.1846 -31.082 -50.1846 -99.084v-205.558l37.1309 -37.1309l-37.1309 -37.1309v-205.197c0 -67.9629 50.1846 -99.0449 50.1846 -99.0449h-0.015625v-30.5186h-240.417v30.5186h-0.0234375s50.1924 31.0586 50.1924 99.0449v205.221
l-37.1309 37.1309l37.1309 37.1309v205.55c0 67.9863 -50.1924 99.0684 -50.1924 99.0684h0.0234375v30.5186h240.417zM158.899 875.505l-56.5703 -60.2842h-69.4209l81.7686 104.303l10.8516 13.9785h66.749l10.8516 -13.7744l81.5576 -104.507h-70.2354z" />
    <glyph glyph-name="idieresis" unicode="&#xef;" horiz-adv-x="306" 
d="M223.172 129.548c0 -67.9785 50.1924 -99.0605 50.1924 -99.084h-0.0234375v-30.5186h-240.409v30.5186h-0.0234375s50.1924 31.0586 50.1924 99.0449v205.221l-37.1309 37.1309l37.1309 37.1309v205.558c0 67.9785 -50.1924 99.0605 -50.1924 99.0605h0.0234375v30.5186
h240.409v-30.4951h0.0234375s-50.1924 -31.082 -50.1924 -99.0684v-205.55l37.1309 -37.1309l-37.1309 -37.1309v-205.205zM89.377 827.654c-25.7939 0 -46.7061 20.9121 -46.7061 46.7061s20.9121 46.7061 46.7061 46.7061s46.7061 -20.9121 46.7061 -46.7061
s-20.9121 -46.7061 -46.7061 -46.7061zM216.896 827.654c-25.7939 0 -46.7061 20.9121 -46.7061 46.7061s20.9121 46.7061 46.7061 46.7061s46.7061 -20.9121 46.7061 -46.7061s-20.9121 -46.7061 -46.7061 -46.7061z" />
    <glyph glyph-name="eth" unicode="&#xf0;" horiz-adv-x="544" 
d="M490.033 409.024l37.1553 -37.1152l-37.1309 -37.1309v-191.329c0 -95.4102 -65.166 -143.221 -195.482 -143.448h-257.06v30.5186s50.1924 31.0586 50.1924 99.0371v191.933h-54.7998v101.177h54.7764v191.909c0 67.9863 -50.1846 99.0684 -50.1846 99.0684v30.5186
h265.96c124.369 -0.235352 186.573 -48.1719 186.573 -143.793v-191.345zM349.979 185.798l0.0234375 372.182c0 31.1064 -20.2773 46.6436 -60.8721 46.6436h-61.3662v-181.958h54.5723v-101.177h-54.5723v-181.997h61.3506c40.5713 0 60.8643 15.4355 60.8643 46.3066z
" />
    <glyph glyph-name="ntilde" unicode="&#xf1;" horiz-adv-x="650" 
d="M265.099 863.117c-38.2129 0 -50.8359 -31.3711 -53.2725 -36.7539l-11.4707 -0.0234375v82.1055c7.23242 10.2012 34.2246 21.7188 57.2129 21.7188c61.2715 0 91.2021 -41.3857 127.205 -41.3857c46.792 0 52.5508 24.9863 55.1367 29.1387l10.3662 -0.0234375
v-71.3164c-10.8281 -12.0586 -25.1748 -27.4551 -62.2275 -27.4551c-43.5322 0 -85.9834 43.9951 -122.95 43.9951zM567.509 129.55c0 -67.9785 50.208 -99.0605 50.2314 -99.0371h-0.0234375v-30.5186h-259.183l-135.362 487.894v-358.354
c0 -67.9629 50.1924 -99.0449 50.1924 -99.0449h-0.0234375v-30.5186h-240.409v30.5186h-0.0234375s50.1924 31.0586 50.1924 99.0449v205.197l-37.1309 37.1309l37.1309 37.1309v205.558c0 67.9785 -50.1924 99.0605 -50.1924 99.0605h0.0234375v30.5186h259.183
l135.339 -487.894v358.314c0 67.9785 -50.1846 99.0605 -50.1846 99.0605h0.015625v30.5186h240.394v-30.4951h0.0234375s-50.1924 -31.082 -50.1924 -99.0684v-205.55l37.1309 -37.1309l-37.1309 -37.1309v-205.205z" />
    <glyph glyph-name="ograve" unicode="&#xf2;" horiz-adv-x="542" 
d="M364.959 804.791h-76.9111l-139.515 139.201h107.555zM472.388 409.017l37.1318 -37.1309l-37.1309 -37.1309v-200.238c0 -95.6455 -67.1484 -143.582 -201.421 -143.81c-133.968 0 -200.928 47.9365 -200.928 143.809v200.238l-37.1309 37.1309l37.1309 37.1309v200.92
c0 95.6455 66.9834 143.456 200.927 143.456c134.272 0 201.421 -47.834 201.421 -143.455v-200.92zM332.333 176.506v391.089c0 30.6436 -20.293 46.0791 -60.8721 46.3066h-0.979492c-40.2578 0 -60.3867 -15.4355 -60.3867 -46.3066v-391.089
c0 -30.8711 20.293 -46.3066 60.8721 -46.3066c40.9004 0 61.3662 15.4355 61.3662 46.3066z" />
    <glyph glyph-name="oacute" unicode="&#xf3;" horiz-adv-x="542" 
d="M408.1 943.992l-139.491 -139.201h-76.9346l108.871 139.201h107.555zM472.388 409.017l37.1309 -37.1309l-37.1309 -37.1309v-200.238c0 -95.6455 -67.1484 -143.582 -201.421 -143.81c-133.943 0 -200.927 47.9365 -200.927 143.809v200.238l-37.1309 37.1309
l37.1309 37.1309v200.92c0 95.6455 66.9834 143.456 200.927 143.456c134.272 0 201.421 -47.834 201.421 -143.455v-200.92zM332.332 176.506v391.089c0 30.6436 -20.2773 46.0791 -60.8721 46.3066h-0.979492c-40.2578 0 -60.3867 -15.4355 -60.3867 -46.3066v-391.089
c0 -30.8711 20.2773 -46.3066 60.8721 -46.3066c40.9004 0 61.3662 15.4355 61.3662 46.3066z" />
    <glyph glyph-name="ocircumflex" unicode="&#xf4;" horiz-adv-x="542" 
d="M271.319 875.504l-56.5547 -60.2842h-69.4443l81.792 104.303l10.8516 13.9785h66.749l10.8516 -13.7744l81.542 -104.507h-70.2197zM472.388 409.017l37.1318 -37.1309l-37.1309 -37.1309v-200.238c0 -95.6455 -67.1484 -143.582 -201.421 -143.81
c-133.968 0 -200.928 47.9365 -200.928 143.809v200.238l-37.1309 37.1309l37.1309 37.1309v200.92c0 95.6455 66.9834 143.456 200.927 143.456c134.272 0 201.421 -47.834 201.421 -143.455v-200.92zM332.333 176.506v391.089c0 30.6436 -20.293 46.0791 -60.8721 46.3066
h-0.979492c-40.2578 0 -60.3867 -15.4355 -60.3867 -46.3066v-391.089c0 -30.8711 20.293 -46.3066 60.8721 -46.3066c40.9004 0 61.3662 15.4355 61.3662 46.3066z" />
    <glyph glyph-name="otilde" unicode="&#xf5;" horiz-adv-x="542" 
d="M211.012 863.117c-38.2129 0 -50.835 -31.3711 -53.2949 -36.7539l-11.4785 -0.0234375v82.1055c7.24023 10.2012 34.2324 21.7188 57.2207 21.7188c61.2871 0 91.2021 -41.3857 127.229 -41.3857c46.7842 0 52.543 24.9863 55.1289 29.1387l10.374 -0.0234375v-71.3164
c-10.8281 -12.0586 -25.1826 -27.4551 -62.2275 -27.4551c-43.541 0 -85.9844 43.9951 -122.951 43.9951zM472.39 409.018l37.1318 -37.1309l-37.1309 -37.1309v-200.238c0 -95.6455 -67.1484 -143.582 -201.421 -143.81c-133.968 0 -200.928 47.9365 -200.928 143.809
v200.238l-37.1309 37.1309l37.1309 37.1309v200.92c0 95.6455 66.9834 143.456 200.927 143.456c134.272 0 201.421 -47.834 201.421 -143.455v-200.92zM332.335 176.507v391.089c0 30.6436 -20.293 46.0791 -60.8721 46.3066h-0.979492
c-40.2812 0 -60.3867 -15.4355 -60.3867 -46.3066v-391.089c0 -30.8711 20.293 -46.3066 60.8721 -46.3066c40.9004 0 61.3662 15.4355 61.3662 46.3066z" />
    <glyph glyph-name="odieresis" unicode="&#xf6;" horiz-adv-x="542" 
d="M207.462 827.654c-25.7939 0 -46.7061 20.9121 -46.7061 46.7061s20.9121 46.7061 46.7061 46.7061c25.8018 0 46.7061 -20.9121 46.7061 -46.7061s-20.9043 -46.7061 -46.7061 -46.7061zM334.98 827.654c-25.7939 0 -46.7061 20.9121 -46.7061 46.7061
s20.9121 46.7061 46.7061 46.7061s46.7061 -20.9121 46.7061 -46.7061s-20.9121 -46.7061 -46.7061 -46.7061zM472.388 409.017l37.1318 -37.1309l-37.1309 -37.1309v-200.238c0 -95.6455 -67.1484 -143.582 -201.421 -143.81c-133.968 0 -200.928 47.9365 -200.928 143.809
v200.238l-37.1309 37.1309l37.1309 37.1309v200.92c0 95.6455 66.9834 143.456 200.927 143.456c134.272 0 201.421 -47.834 201.421 -143.455v-200.92zM332.333 176.506v391.089c0 30.6436 -20.293 46.0791 -60.8721 46.3066h-0.979492
c-40.2578 0 -60.3867 -15.4355 -60.3867 -46.3066v-391.089c0 -30.8711 20.293 -46.3066 60.8721 -46.3066c40.9004 0 61.3662 15.4355 61.3662 46.3066z" />
    <glyph glyph-name="divide" unicode="&#xf7;" horiz-adv-x="622" 
d="M311.139 515.545c-46.4629 0 -84.127 37.6641 -84.127 84.127s37.6641 84.127 84.127 84.127s84.127 -37.6641 84.127 -84.127s-37.6641 -84.127 -84.127 -84.127zM311.139 62.3613c-46.4629 0 -84.127 37.6641 -84.127 84.127s37.6641 84.127 84.127 84.127
s84.127 -37.6641 84.127 -84.127s-37.6641 -84.127 -84.127 -84.127zM558.835 493.034h30.5186v-240.409h-30.5186v-0.0234375s-31.0586 50.1924 -99.0449 50.1924h-297.301c-67.9785 0 -99.0605 -50.1924 -99.0605 -50.1924v0.0234375h-30.5186v240.409h30.5186v0.0234375
s31.082 -50.1924 99.0605 -50.1924h297.301c67.9629 0 99.0449 50.1924 99.0449 50.1689z" />
    <glyph glyph-name="oslash" unicode="&#xf8;" horiz-adv-x="542" 
d="M472.388 409.017l37.1318 -37.1133l-37.1309 -37.1309v-200.23c0 -95.6455 -67.1484 -143.582 -201.421 -143.81c-24.7676 0 -47.1924 1.64551 -67.3604 4.9209l-14.793 -59.1406h-53.7578l18.1699 72.6562c-55.3564 22.0088 -83.1875 63.7236 -83.1875 125.348v200.238
l-37.1309 37.1309l37.1309 37.1309v200.92c0 95.6455 66.9834 143.456 200.927 143.456c24.6494 0 47.0117 -1.64551 67.1484 -4.88184l15.4746 61.9375l53.7578 0.015625l-18.8359 -75.3281c55.8027 -21.8994 83.877 -63.5596 83.877 -125.199v-200.92zM210.095 567.597
l0.000976562 -331.031l93.1377 372.52c-8.69727 3.02441 -19.126 4.75586 -31.7725 4.81836h-0.979492c-40.2812 0 -60.3867 -15.4355 -60.3867 -46.3066zM332.334 176.508l-0.000976562 333.93l-93.8506 -375.316c8.82227 -3.16504 19.5098 -4.91992 32.4854 -4.91992
c40.9004 0 61.3662 15.4355 61.3662 46.3066z" />
    <glyph glyph-name="ugrave" unicode="&#xf9;" horiz-adv-x="569" 
d="M485.449 614.566l-0.00195312 -205.572l37.1309 -37.1309l-37.1309 -37.1309v-200.238c0 -95.6377 -67.1484 -143.582 -201.429 -143.81c-133.959 0 -200.919 47.9365 -200.919 143.809v200.238l-37.1309 37.1309l37.1309 37.1309v205.558
c0 67.9785 -50.1924 99.0605 -50.1924 99.0605h0.0234375v30.5186h240.386v-30.5186h0.0234375s-50.1924 -31.082 -50.1924 -99.0449v-438.062c0 -30.8711 20.3008 -46.3066 60.8721 -46.3066c40.9082 0 61.374 15.4355 61.374 46.3066v438.062
c0 67.9629 -50.1924 99.0449 -50.1924 99.0449h0.0234375v30.5186h240.409v-30.4951s-50.1846 -31.082 -50.1846 -99.0684zM361.203 804.792h-76.9111l-139.515 139.201h107.578z" />
    <glyph glyph-name="uacute" unicode="&#xfa;" horiz-adv-x="569" 
d="M485.449 614.566l-0.00195312 -205.572l37.1309 -37.1309l-37.1309 -37.1309v-200.238c0 -95.6377 -67.1484 -143.582 -201.429 -143.81c-133.959 0 -200.919 47.9365 -200.919 143.809v200.238l-37.1309 37.1309l37.1309 37.1309v205.558
c0 67.9785 -50.1924 99.0605 -50.1924 99.0605h0.0234375v30.5186h240.386v-30.5186h0.0234375s-50.1924 -31.082 -50.1924 -99.0449v-438.062c0 -30.8711 20.3008 -46.3066 60.8721 -46.3066c40.9082 0 61.374 15.4355 61.374 46.3066v438.062
c0 67.9629 -50.1924 99.0449 -50.1924 99.0449h0.0234375v30.5186h240.409v-30.4951s-50.1846 -31.082 -50.1846 -99.0684zM460.68 943.993l-139.507 -139.201h-76.9111l108.863 139.201h107.555z" />
    <glyph glyph-name="ucircumflex" unicode="&#xfb;" horiz-adv-x="569" 
d="M485.449 614.566l-0.00195312 -205.572l37.1309 -37.1309l-37.1309 -37.1309v-200.238c0 -95.6377 -67.1484 -143.582 -201.429 -143.81c-133.959 0 -200.919 47.9365 -200.919 143.809v200.238l-37.1309 37.1309l37.1309 37.1309v205.558
c0 67.9785 -50.1924 99.0605 -50.1924 99.0605h0.0234375v30.5186h240.386v-30.5186h0.0234375s-50.1924 -31.082 -50.1924 -99.0449v-438.062c0 -30.8711 20.3008 -46.3066 60.8721 -46.3066c40.9082 0 61.374 15.4355 61.374 46.3066v438.062
c0 67.9629 -50.1924 99.0449 -50.1924 99.0449h0.0234375v30.5186h240.409v-30.4951s-50.1846 -31.082 -50.1846 -99.0684zM284.395 875.506l-56.5703 -60.2842h-69.4209l81.7686 104.303l10.8438 13.9785h66.7568l10.8438 -13.7744l81.542 -104.507h-70.2119z" />
    <glyph glyph-name="udieresis" unicode="&#xfc;" horiz-adv-x="569" 
d="M485.449 614.566l-0.00195312 -205.572l37.1309 -37.1309l-37.1309 -37.1309v-200.238c0 -95.6377 -67.1484 -143.582 -201.429 -143.81c-133.959 0 -200.919 47.9365 -200.919 143.809v200.238l-37.1309 37.1309l37.1309 37.1309v205.558
c0 67.9785 -50.1924 99.0605 -50.1924 99.0605h0.0234375v30.5186h240.386v-30.5186h0.0234375s-50.1924 -31.082 -50.1924 -99.0449v-438.062c0 -30.8711 20.3008 -46.3066 60.8721 -46.3066c40.9082 0 61.374 15.4355 61.374 46.3066v438.062
c0 67.9629 -50.1924 99.0449 -50.1924 99.0449h0.0234375v30.5186h240.409v-30.4951s-50.1846 -31.082 -50.1846 -99.0684zM220.521 827.655c-25.7939 0 -46.7061 20.9121 -46.7061 46.7061s20.9121 46.7061 46.7061 46.7061s46.7061 -20.9121 46.7061 -46.7061
s-20.9121 -46.7061 -46.7061 -46.7061zM348.04 827.655c-25.7939 0 -46.7061 20.9121 -46.7061 46.7061s20.9121 46.7061 46.7061 46.7061s46.7061 -20.9121 46.7061 -46.7061s-20.9121 -46.7061 -46.7061 -46.7061z" />
    <glyph glyph-name="yacute" unicode="&#xfd;" horiz-adv-x="624" 
d="M464.796 943.992l-139.491 -139.201h-76.9346l108.871 139.201h107.555zM591.602 744.131l0.000976562 -30.4951c0.0234375 0 -40.9238 -4.69336 -85.3574 -99.085v0.078125l-104.193 -221.174l21.5859 -21.5938l-40.8613 -40.8691v-201.46
c0 -67.9629 50.1846 -99.0449 50.1846 -99.0449v-30.5186h-240.409v30.5186h-0.0234375s50.1924 31.0586 50.1924 99.0449v201.46l-40.8447 40.8691l20.9434 20.9434l-104.507 221.824v-0.078125c-44.457 94.3682 -85.4043 99.0615 -85.4043 99.0615h0.0234375v30.5186
h240.409v-30.5186h0.0234375s-42.8271 -32.2109 -8.49316 -99.0615l47.3955 -92.3311l47.3955 92.3311c34.3105 66.8506 -8.49316 99.0615 -8.49316 99.0615h0.0234375v30.5186h240.409z" />
    <glyph glyph-name="thorn" unicode="&#xfe;" horiz-adv-x="548" 
d="M328.729 602.932c124.385 -0.235352 186.564 -48.1699 186.549 -143.815v-154.151c0 -70.5723 -44.708 -116.063 -134.108 -136.49c-21.4453 -4.85742 -158.021 -7.30176 -158.021 -7.30176v-31.9365c0.172852 -67.752 50.1699 -98.748 50.1699 -98.748v-30.5186
h-240.386v30.5186h-0.0234375s50.1924 31.082 50.208 99.0215v205.221l-37.1309 37.1309l37.1309 37.1309v109.177h-0.0390625v96.6875c-0.164062 67.7598 -50.1689 98.7559 -50.1689 98.7559v30.5186h240.394v-30.5186h0.015625s-50.1846 -31.0586 -50.1846 -99.0449
v-11.6357h105.596zM375.245 347.167l0.0136719 69.6084c0 31.0986 -20.293 46.667 -60.8643 46.667h-91.2256v-162.59h73.8633c19.4629 0 32.8379 0.94043 40.0938 2.79785c25.4102 7.17676 38.1191 21.6953 38.1191 43.5166z" />
    <glyph glyph-name="ydieresis" unicode="&#xff;" horiz-adv-x="625" 
d="M248.495 827.654c-25.7939 0 -46.7061 20.9121 -46.7061 46.7061s20.9121 46.7061 46.7061 46.7061s46.7061 -20.9121 46.7061 -46.7061s-20.9121 -46.7061 -46.7061 -46.7061zM376.014 827.654c-25.7939 0 -46.7061 20.9121 -46.7061 46.7061
s20.9121 46.7061 46.7061 46.7061s46.7061 -20.9121 46.7061 -46.7061s-20.9121 -46.7061 -46.7061 -46.7061zM591.601 744.131l0.00195312 -30.4951c0.0234375 0 -40.9238 -4.69336 -85.3574 -99.085v0.078125l-104.193 -221.174l21.5859 -21.5938l-40.8613 -40.8691
v-201.46c0 -67.9629 50.1846 -99.0449 50.1846 -99.0449v-30.5186h-240.409v30.5186h-0.0234375s50.1924 31.0586 50.1924 99.0449v201.46l-40.8457 40.8691l20.9434 20.9434l-104.507 221.824v-0.078125c-44.457 94.3682 -85.4043 99.0615 -85.4043 99.0615h0.0234375
v30.5186h240.409v-30.5186h0.0234375s-42.8271 -32.2109 -8.49316 -99.0615l47.3955 -92.3311l47.3955 92.3311c34.3105 66.8506 -8.49316 99.0615 -8.49316 99.0615h0.0234375v30.5186h240.409z" />
    <glyph glyph-name="dotlessi" unicode="&#x131;" horiz-adv-x="306" 
d="M223.148 129.556c0 -67.9629 50.1689 -99.0361 50.1689 -99.0361v-30.5186h-240.386l-0.0234375 30.5186s50.1924 31.0586 50.1924 99.0215v205.221l-37.1309 37.1309l37.1309 37.1309v205.55c0 67.9863 -50.1689 99.0684 -50.1689 99.0684v30.5186h240.386
l0.0234375 -30.5186s-50.1924 -31.0664 -50.1924 -99.0449v-205.574l37.1309 -37.1309l-37.1309 -37.1309v-205.205z" />
    <glyph glyph-name="Lslash" unicode="&#x141;" horiz-adv-x="537" 
d="M473.164 190.005l30.5195 -0.0224609l-30.5186 -190.036h-426.215v30.5186h-0.015625s46.4316 29.3506 49.6045 92.6436l0.125 106.865l-73.1582 -46.667v82.2705l73.2598 46.7295l0.352539 302.237c0 67.9863 -50.1846 99.0684 -50.1846 99.0684h0.015625v30.5186
h240.394v-30.4951h0.0234375s-50.1924 -31.082 -50.1924 -99.0684v-212.688l96.4834 61.5381v-82.2705l-96.4834 -61.5381v-179.796h136.929c67.8145 0 99.0459 50.1689 99.0459 50.1689z" />
    <glyph glyph-name="lslash" unicode="&#x142;" horiz-adv-x="537" 
d="M473.164 190.005l30.5195 -0.0224609l-30.5186 -190.036h-426.215v30.5186h-0.015625s46.4316 29.3506 49.6045 92.6436l0.125 106.865l-73.1582 -46.667v82.2705l73.2598 46.7295l0.352539 302.237c0 67.9863 -50.1846 99.0684 -50.1846 99.0684h0.015625v30.5186
h240.394v-30.4951h0.0234375s-50.1924 -31.082 -50.1924 -99.0684v-212.688l96.4834 61.5381v-82.2705l-96.4834 -61.5381v-179.796h136.929c67.8145 0 99.0459 50.1689 99.0459 50.1689z" />
    <glyph glyph-name="OE" unicode="&#x152;" horiz-adv-x="773" 
d="M708.919 189.981l30.5635 0.0234375l-30.5186 -190.036h-349.39c-25.2998 -6.11133 -54.8154 -9.19824 -88.6094 -9.26074c-133.968 0 -200.928 47.9365 -200.928 143.809v200.238l-37.1309 37.1309l37.1309 37.1309v200.92c0 95.6455 66.96 143.456 200.928 143.456
c34.0361 0 63.7236 -3.11035 89.1494 -9.2373h348.85l30.5186 -190.036h-30.5186l-0.046875 0.274414l0.0234375 -0.274414s-31.082 50.1846 -99.0684 50.1846h-137.524v-162.559h54.0869c67.752 0.148438 98.7715 50.5449 98.7715 50.5449h30.5186v-240.417h-30.4951
c-0.0234375 0.0625 -31.1055 50.1924 -99.0449 50.1924h-53.8203v-162.253h137.509c63.709 0 99.0459 50.1689 99.0459 50.1689zM210.093 176.505c0 -30.8711 20.2773 -46.3076 60.8721 -46.3076c40.7979 0 61.2402 15.373 61.3418 46.0791v391.544
c-0.101562 30.4795 -20.3789 45.8525 -60.8477 46.0801h-0.979492c-40.2812 0 -60.3867 -15.4355 -60.3867 -46.3066v-391.089z" />
    <glyph glyph-name="oe" unicode="&#x153;" horiz-adv-x="773" 
d="M708.919 189.981l30.5635 0.0234375l-30.5186 -190.036h-349.39c-25.2998 -6.11133 -54.8154 -9.19824 -88.6094 -9.26074c-133.968 0 -200.928 47.9365 -200.928 143.809v200.238l-37.1309 37.1309l37.1309 37.1309v200.92c0 95.6455 66.96 143.456 200.928 143.456
c34.0361 0 63.7236 -3.11035 89.1494 -9.2373h348.85l30.5186 -190.036h-30.5186l-0.046875 0.274414l0.0234375 -0.274414s-31.082 50.1846 -99.0684 50.1846h-137.524v-162.559h54.0869c67.752 0.148438 98.7715 50.5449 98.7715 50.5449h30.5186v-240.417h-30.4951
c-0.0234375 0.0625 -31.1055 50.1924 -99.0449 50.1924h-53.8203v-162.253h137.509c63.709 0 99.0459 50.1689 99.0459 50.1689zM210.093 176.505c0 -30.8711 20.2773 -46.3076 60.8721 -46.3076c40.7979 0 61.2402 15.373 61.3418 46.0791v391.544
c-0.101562 30.4795 -20.3789 45.8525 -60.8477 46.0801h-0.979492c-40.2812 0 -60.3867 -15.4355 -60.3867 -46.3066v-391.089z" />
    <glyph glyph-name="Scaron" unicode="&#x160;" horiz-adv-x="469" 
d="M435.257 438.069l-140.031 84.8408v44.6846c0 30.6436 -20.3008 46.0791 -60.8721 46.3066h-0.979492c-40.2812 0 -60.3867 -15.4355 -60.3867 -46.3066v-48.6104c0 -26.5146 33.2295 -58.2158 99.626 -95.0967l41.4873 11.6357l11.2041 -39.9209
c73.0088 -41.4717 109.952 -90.1211 109.952 -146.104v-95.6055c0 -95.8721 -66.9834 -163.169 -200.927 -163.169c-134.296 0.235352 -201.421 67.5479 -201.421 163.169v164.109l140.056 -80.8525v-60.6445c0 -30.8711 20.4658 -46.3066 61.3662 -46.3066
c40.5791 0 60.8721 15.4355 60.8721 46.3066v64.625c0 23.0908 -21.9229 48.9629 -64.8135 77.5146l-40.6572 -10.7031l-10.7812 40.9082c-4.96777 2.63281 -9.59863 5.21875 -14.8955 7.89062c-87.4258 43.8691 -131.146 97.2432 -131.146 160.16v73.3223
c0 95.6211 66.9834 163.169 200.927 163.169c134.272 0 201.421 -67.5479 201.421 -163.169v-152.153zM200.6 815.221l-10.8438 13.7666l-81.5654 104.515h70.2354l55.5518 -60.292l56.5703 60.292h69.4287l-81.7764 -104.303l-10.8438 -13.9785h-66.7568z" />
    <glyph glyph-name="scaron" unicode="&#x161;" horiz-adv-x="469" 
d="M435.257 438.069l-140.031 84.8408v44.6846c0 30.6436 -20.3008 46.0791 -60.8721 46.3066h-0.979492c-40.2812 0 -60.3867 -15.4355 -60.3867 -46.3066v-48.6104c0 -26.5146 33.2295 -58.2158 99.626 -95.0967l41.4873 11.6357l11.2041 -39.9209
c73.0088 -41.4717 109.952 -90.1211 109.952 -146.104v-95.6055c0 -95.8721 -66.9834 -163.169 -200.927 -163.169c-134.296 0.235352 -201.421 67.5479 -201.421 163.169v164.109l140.056 -80.8525v-60.6445c0 -30.8711 20.4658 -46.3066 61.3662 -46.3066
c40.5791 0 60.8721 15.4355 60.8721 46.3066v64.625c0 23.0908 -21.9229 48.9629 -64.8135 77.5146l-40.6572 -10.7031l-10.7812 40.9082c-4.96777 2.63281 -9.59863 5.21875 -14.8955 7.89062c-87.4258 43.8691 -131.146 97.2432 -131.146 160.16v73.3223
c0 95.6211 66.9834 163.169 200.927 163.169c134.272 0 201.421 -67.5479 201.421 -163.169v-152.153zM200.6 815.221l-10.8438 13.7666l-81.5654 104.515h70.2354l55.5518 -60.292l56.5703 60.292h69.4287l-81.7764 -104.303l-10.8438 -13.9785h-66.7568z" />
    <glyph glyph-name="Wcircumflex" unicode="&#x174;" horiz-adv-x="847" 
d="M423.473 874.721l-56.5703 -60.2842h-69.4287l81.7764 104.303l10.8438 13.9785h66.7568l10.8438 -13.7744l81.5654 -104.507h-70.2354zM813.825 712.853c0 0 -60.4111 -18.1074 -68.043 -99.0693l-18.9844 -200.794l0.015625 0.015625l40.2188 -41.1348
l-48.0146 -40.9707l-31.2705 -330.546h-211.043l-53.3193 302.058l-53.3193 -302.058h-211.059l-31.2705 330.569l-47.999 40.9473l40.2188 41.1348l-18.9844 200.763c-7.65527 80.9541 -68.0654 99.0615 -68.0654 99.0615h0.0234375v30.5186h259.097v-30.4951h0.0234375
s-55.8418 -31.498 -49.2676 -99.0459l40.2578 -413.757l69.6084 390.353l-0.313477 1.23047h142.062l-0.313477 -1.23047l69.6084 -390.353l40.2578 413.757c6.57422 67.5479 -49.2676 99.0459 -49.2676 99.0459h0.0234375v30.5186h259.097z" />
    <glyph glyph-name="wcircumflex" unicode="&#x175;" horiz-adv-x="847" 
d="M423.449 874.721l-56.5703 -60.2842h-69.4209l81.7686 104.303l10.8438 13.9785h66.7568l10.8438 -13.7744l81.5654 -104.507h-70.2354zM813.802 712.853c0 0 -60.4102 -18.1074 -68.0029 -99.0693l-19.001 -200.794l0.015625 0.015625l40.2188 -41.1348
l-48.0146 -40.9707l-31.2705 -330.546h-211.066l-53.3115 302.058l-53.3193 -302.058h-211.066l-31.2705 330.569l-47.999 40.9473l40.2422 41.1348l-18.9844 200.763c-7.65527 80.9541 -68.0654 99.0615 -68.0654 99.0615h0.0234375v30.5186h259.097v-30.4951h0.0234375
s-55.8418 -31.498 -49.2676 -99.0459l40.2578 -413.757l69.5928 390.353l-0.313477 1.23047h142.054l-0.313477 -1.23047l69.6084 -390.353l40.2656 413.757c6.56641 67.5479 -49.2754 99.0459 -49.2754 99.0459h0.0234375v30.5186h259.104z" />
    <glyph glyph-name="Ycircumflex" unicode="&#x176;" horiz-adv-x="624" 
d="M312.368 875.504l-56.5703 -60.2842h-69.4209l81.792 104.303l10.8438 13.9785h66.7568l10.8438 -13.7744l81.5654 -104.507h-70.2588zM591.625 744.131l0.00195312 -30.4951c0.0234375 0 -40.9316 -4.69336 -85.3184 -99.085v0.078125l-104.217 -221.174
l21.5859 -21.5938l-40.8613 -40.8691v-201.46c0 -67.9629 50.1924 -99.0449 50.1924 -99.0449h-0.0234375v-30.5186h-240.417v30.5186h-0.015625s50.1846 31.0586 50.1846 99.0449v201.46l-40.8613 40.8691l20.9434 20.9434l-104.507 221.824v-0.078125
c-44.457 94.3682 -85.4043 99.0615 -85.4043 99.0615h0.0234375v30.5186h240.409v-30.5186h0.0234375s-42.8271 -32.2109 -8.49316 -99.0615l47.3955 -92.3311l47.3955 92.3311c34.334 66.8506 -8.46973 99.0615 -8.46973 99.0615h0.0234375v30.5186h240.409z" />
    <glyph glyph-name="ycircumflex" unicode="&#x177;" horiz-adv-x="624" 
d="M312.368 875.504l-56.5703 -60.2842h-69.4209l81.7686 104.303l10.8516 13.9785h66.749l10.8438 -13.7744l81.5654 -104.507h-70.2354zM591.602 744.131l0.000976562 -30.4951c0.0234375 0 -40.9238 -4.69336 -85.3574 -99.085v0.078125l-104.193 -221.174
l21.5859 -21.5938l-40.8613 -40.8691v-201.46c0 -67.9629 50.1846 -99.0449 50.1846 -99.0449v-30.5186h-240.409v30.5186h-0.0234375s50.1924 31.0586 50.1924 99.0449v201.46l-40.8447 40.8691l20.9434 20.9434l-104.507 221.824v-0.078125
c-44.457 94.3682 -85.4043 99.0615 -85.4043 99.0615h0.0234375v30.5186h240.409v-30.5186h0.0234375s-42.8271 -32.2109 -8.49316 -99.0615l47.3955 -92.3311l47.3955 92.3311c34.3105 66.8506 -8.49316 99.0615 -8.49316 99.0615h0.0234375v30.5186h240.409z" />
    <glyph glyph-name="Ydieresis" unicode="&#x178;" horiz-adv-x="624" 
d="M248.519 827.654c-25.7939 0 -46.7061 20.9121 -46.7061 46.7061s20.9121 46.7061 46.7061 46.7061s46.7061 -20.9121 46.7061 -46.7061s-20.9121 -46.7061 -46.7061 -46.7061zM376.037 827.654c-25.7939 0 -46.7061 20.9121 -46.7061 46.7061
s20.9121 46.7061 46.7061 46.7061s46.7061 -20.9121 46.7061 -46.7061s-20.9121 -46.7061 -46.7061 -46.7061zM591.624 744.131l0.00195312 -30.4951c0.0234375 0 -40.9316 -4.69336 -85.3184 -99.085v0.078125l-104.217 -221.174l21.5859 -21.5938l-40.8613 -40.8691
v-201.46c0 -67.9629 50.1924 -99.0449 50.1924 -99.0449h-0.0234375v-30.5186h-240.417v30.5186h-0.015625s50.1846 31.0586 50.1846 99.0449v201.46l-40.8613 40.8691l20.9434 20.9434l-104.507 221.824v-0.078125c-44.457 94.3682 -85.4043 99.0615 -85.4043 99.0615
h0.0234375v30.5186h240.409v-30.5186h0.0234375s-42.8271 -32.2109 -8.49316 -99.0615l47.3955 -92.3311l47.3955 92.3311c34.334 66.8506 -8.46973 99.0615 -8.46973 99.0615h0.0234375v30.5186h240.409z" />
    <glyph glyph-name="Zcaron" unicode="&#x17d;" horiz-adv-x="529" 
d="M446.523 190.005h30.5586l-30.5186 -190.036l-413.655 0.101562l148.463 341.915l-21.9072 29.8994l47.834 29.8916l87.9033 202.51h-114.23c-61.1387 0 -99.0225 -50.1689 -99.0225 -50.1689h-30.542l30.5186 190.036l413.663 -0.109375l-60.7314 -139.758
l-87.9033 -202.51l21.9072 -29.8916l-47.834 -29.876l-87.7549 -202.173h114.23c63.3086 0 99.0215 50.1689 99.0215 50.1689zM252.923 815.22l-10.8516 13.7666l-81.5654 104.515h70.2432l55.5439 -60.292l56.5781 60.292h69.4209l-81.7764 -104.303l-10.8438 -13.9785
h-66.749z" />
    <glyph glyph-name="zcaron" unicode="&#x17e;" horiz-adv-x="529" 
d="M446.523 190.005h30.5586l-30.5186 -190.036l-413.655 0.101562l148.463 341.915l-21.9072 29.8994l47.834 29.8916l87.9033 202.51h-114.23c-61.1387 0 -99.0225 -50.1689 -99.0225 -50.1689h-30.542l30.5186 190.036l413.663 -0.109375l-60.7314 -139.758
l-87.9033 -202.51l21.9072 -29.8916l-47.834 -29.876l-87.7549 -202.173h114.23c63.3086 0 99.0215 50.1689 99.0215 50.1689zM252.923 815.22l-10.8516 13.7666l-81.5654 104.515h70.2432l55.5439 -60.292l56.5781 60.292h69.4209l-81.7764 -104.303l-10.8438 -13.9785
h-66.749z" />
    <glyph glyph-name="Wgrave" unicode="&#x1e80;" horiz-adv-x="847" 
d="M497.312 804.008h-76.9268l-139.491 139.201h107.555zM813.824 712.853c0 0 -60.3877 -18.1074 -68.0664 -99.0693l-18.9844 -200.794l0.0234375 0.015625l40.2188 -41.1348l-48.0225 -40.9707l-31.2705 -330.546h-211.043l-53.3115 302.058l-53.3193 -302.058h-211.043
l-31.2705 330.569l-47.999 40.9473l40.2188 41.1348l-18.9844 200.763c-7.65527 80.9541 -68.0654 99.0615 -68.0654 99.0615h0.0234375v30.5186h259.097v-30.4951h0.0234375s-55.8418 -31.498 -49.2676 -99.0459l40.2578 -413.757l69.6084 390.353l-0.290039 1.23047
h142.054l-0.290039 -1.23047l69.5928 -390.353l40.2578 413.757c6.57422 67.5479 -49.2676 99.0459 -49.2676 99.0459h0.015625v30.5186h259.081z" />
    <glyph glyph-name="wgrave" unicode="&#x1e81;" horiz-adv-x="847" 
d="M497.257 804.008h-76.9346l-139.491 139.201h107.555zM813.785 712.853c0 0 -60.4111 -18.1074 -67.9883 -99.0693l-18.9844 -200.794l0.0234375 0.015625l40.2188 -41.1348l-48.0225 -40.9707l-31.2627 -330.546h-211.066l-53.3193 302.058l-53.3193 -302.058h-211.059
l-31.2705 330.569l-47.999 40.9473l40.2188 41.1348l-18.9844 200.763c-7.65527 80.9541 -68.0654 99.0615 -68.0654 99.0615h0.0234375v30.5186h259.097v-30.4951s-55.8418 -31.498 -49.2676 -99.0459l40.2578 -413.757l69.6162 390.353l-0.313477 1.23047h142.054
l-0.313477 -1.23047l69.5928 -390.353l40.2578 413.757c6.57422 67.5479 -49.2676 99.0459 -49.2676 99.0459h0.015625v30.5186h259.104z" />
    <glyph glyph-name="Wacute" unicode="&#x1e82;" horiz-adv-x="847" 
d="M562.9 943.209l-139.491 -139.201h-76.9346l108.871 139.201h107.555zM813.848 712.853c0 0 -60.3955 -18.1074 -68.0898 -99.0693l-18.9844 -200.794l0.0234375 0.015625l40.2188 -41.1348l-48.0225 -40.9707l-31.2705 -330.546h-211.043l-53.3115 302.058
l-53.3193 -302.058h-211.043l-31.2705 330.569l-47.999 40.9473l40.2188 41.1348l-18.9844 200.763c-7.65527 80.9541 -68.0654 99.0615 -68.0654 99.0615h0.0234375v30.5186h259.097v-30.4951h0.0234375s-55.8418 -31.498 -49.2676 -99.0459l40.2578 -413.757
l69.6084 390.353l-0.290039 1.23047h142.054l-0.290039 -1.23047l69.5928 -390.353l40.2578 413.757c6.57422 67.5479 -49.2676 99.0459 -49.2676 99.0459h0.015625v30.5186h259.104z" />
    <glyph glyph-name="wacute" unicode="&#x1e83;" horiz-adv-x="847" 
d="M562.838 943.209l-139.515 -139.201h-76.9111l108.848 139.201h107.578zM813.786 712.853c0 0 -60.4111 -18.1074 -68.0273 -99.0693l-18.9844 -200.794l0.0234375 0.015625l40.2188 -41.1348l-48.0225 -40.9707l-31.2705 -330.546h-211.059l-53.3193 302.058
l-53.3193 -302.058h-211.043l-31.2705 330.569l-47.9756 40.9473l40.2188 41.1348l-18.9844 200.763c-7.65527 80.9541 -68.0654 99.0615 -68.0654 99.0615h0.0234375v30.5186h259.081v-30.4951h0.015625s-55.8418 -31.498 -49.2676 -99.0459l40.2578 -413.757
l69.5928 390.353l-0.290039 1.23047h142.054l-0.313477 -1.23047l69.5928 -390.353l40.2578 413.757c6.57422 67.5479 -49.2676 99.0459 -49.2676 99.0459h0.015625v30.5186h259.104z" />
    <glyph glyph-name="Wdieresis" unicode="&#x1e84;" horiz-adv-x="847" 
d="M359.662 826.871c-25.7939 0 -46.7061 20.9121 -46.7061 46.7061s20.9121 46.7061 46.7061 46.7061s46.7061 -20.9121 46.7061 -46.7061s-20.9121 -46.7061 -46.7061 -46.7061zM487.157 826.871c-25.7939 0 -46.7061 20.9121 -46.7061 46.7061
s20.9121 46.7061 46.7061 46.7061s46.7061 -20.9121 46.7061 -46.7061s-20.9121 -46.7061 -46.7061 -46.7061zM813.849 712.853c0 0 -60.3955 -18.1074 -68.0898 -99.0693l-18.9844 -200.794l0.0234375 0.015625l40.2188 -41.1348l-48.0225 -40.9707l-31.2705 -330.546
h-211.043l-53.3115 302.058l-53.3193 -302.058h-211.043l-31.2705 330.569l-47.999 40.9473l40.2188 41.1348l-18.9844 200.763c-7.65527 80.9541 -68.0654 99.0615 -68.0654 99.0615h0.0234375v30.5186h259.097v-30.4951h0.0234375s-55.8418 -31.498 -49.2676 -99.0459
l40.2578 -413.757l69.5928 390.353l-0.297852 1.23047h142.062l-0.297852 -1.23047l69.6162 -390.353l40.2578 413.757c6.57422 67.5479 -49.2676 99.0459 -49.2676 99.0459h0.015625v30.5186h259.104z" />
    <glyph glyph-name="wdieresis" unicode="&#x1e85;" horiz-adv-x="847" 
d="M359.576 826.871c-25.7939 0 -46.7061 20.9121 -46.7061 46.7061s20.9121 46.7061 46.7061 46.7061s46.7061 -20.9121 46.7061 -46.7061s-20.9121 -46.7061 -46.7061 -46.7061zM487.095 826.871c-25.7939 0 -46.7061 20.9121 -46.7061 46.7061
s20.9121 46.7061 46.7061 46.7061s46.7061 -20.9121 46.7061 -46.7061s-20.9121 -46.7061 -46.7061 -46.7061zM813.786 712.853c0 0 -60.4102 -18.1074 -67.9873 -99.0693l-19.001 -200.794l0.015625 0.015625l40.2188 -41.1348l-48.0146 -40.9707l-31.2705 -330.546
h-211.066l-53.3115 302.058l-53.3193 -302.058h-211.066l-31.2705 330.569l-47.9756 40.9473l40.2188 41.1348l-18.9844 200.763c-7.65527 80.9541 -68.0654 99.0615 -68.0654 99.0615h0.0234375v30.5186h259.097v-30.4951h0.0234375s-55.8418 -31.498 -49.2676 -99.0459
l40.2578 -413.757l69.5928 390.353l-0.313477 1.23047h142.054l-0.313477 -1.23047l69.6084 -390.353l40.2656 413.757c6.56641 67.5479 -49.2754 99.0459 -49.2754 99.0459v30.5186h259.104z" />
    <glyph glyph-name="Ygrave" unicode="&#x1ef2;" horiz-adv-x="624" 
d="M392.664 804.791h-76.9111l-139.515 139.201h107.578zM591.625 744.131l0.000976562 -30.4951c0.0234375 0 -40.9316 -4.69336 -85.3574 -99.085v0.078125l-104.201 -221.174l21.5938 -21.5938l-40.8691 -40.8691v-201.46c0 -67.9629 50.1924 -99.0449 50.1924 -99.0449
h-0.0234375v-30.5186h-240.409v30.5186h-0.0234375s50.1924 31.0586 50.1924 99.0449v201.46l-40.8447 40.8691l20.9434 20.9434l-104.507 221.824v-0.078125c-44.457 94.3682 -85.4043 99.0615 -85.4043 99.0615h0.0234375v30.5186h240.409v-30.5186h0.0234375
s-42.8037 -32.2109 -8.49316 -99.0615l47.3955 -92.3311l47.3955 92.3311c34.334 66.8506 -8.46973 99.0615 -8.46973 99.0615h0.0234375v30.5186h240.409z" />
    <glyph glyph-name="ygrave" unicode="&#x1ef3;" horiz-adv-x="624" 
d="M392.664 804.791h-76.9111l-139.515 139.201h107.578zM591.625 744.131v-30.4951c0.0234375 0 -40.9316 -4.69336 -85.3574 -99.085v0.078125l-104.217 -221.174l21.5859 -21.5938l-40.8447 -40.8691v-201.46c0 -67.9629 50.1924 -99.0449 50.1924 -99.0449h-0.0234375
v-30.5186h-240.409v30.5186h-0.0234375s50.1924 31.0586 50.1924 99.0449v201.46l-40.8447 40.8691l20.9434 20.9434l-104.507 221.824v-0.078125c-44.457 94.3682 -85.4043 99.0615 -85.4043 99.0615h0.0234375v30.5186h240.433v-30.5186h0.015625
s-42.8193 -32.2109 -8.48535 -99.0615l47.3955 -92.3311l47.3877 92.3311c34.3184 66.8506 -8.48535 99.0615 -8.48535 99.0615h0.0234375v30.5186h240.409z" />
    <glyph glyph-name="endash" unicode="&#x2013;" horiz-adv-x="738" 
d="M674.295 492.281h30.5186v-240.417l-30.5186 -0.015625s-31.0586 50.1846 -99.0449 50.1846h-412.762c-67.9785 0 -99.0605 -50.1689 -99.0605 -50.1689h-30.5186v240.417l30.5186 0.015625s31.0586 -50.1846 99.0449 -50.1846h412.754
c67.9863 0 99.0684 50.1689 99.0684 50.1689z" />
    <glyph glyph-name="emdash" unicode="&#x2014;" horiz-adv-x="884" 
d="M820.312 492.281h30.5186v-240.417l-30.5186 -0.015625s-31.0586 50.1846 -99.0449 50.1846h-558.779c-67.9785 0 -99.0605 -50.1689 -99.0605 -50.1689h-30.5186v240.417l30.5186 0.015625s31.0586 -50.1846 99.0449 -50.1846h558.779
c67.9785 0 99.0605 50.1689 99.0605 50.1689z" />
    <glyph glyph-name="quoteleft" unicode="&#x2018;" horiz-adv-x="237" 
d="M174.797 635.839c18.7344 -18.6953 28.9111 -39.0977 28.9346 -64.6484c0 -45.9307 -37.4678 -85.0674 -85.0674 -85.0674c-44.2227 0 -79.959 32.3359 -85.0674 78.29c-11.9092 122.488 134.383 178.62 134.383 178.62l5.77441 -14.1191
c-17.2686 -20.2148 -40.5938 -51.4385 1.04297 -93.0752z" />
    <glyph glyph-name="quoteright" unicode="&#x2019;" horiz-adv-x="237" 
d="M203.043 664.743c11.9092 -122.473 -134.382 -178.629 -134.397 -178.629l-5.78223 14.127c17.2764 20.2148 40.5938 51.4619 -1.04297 93.0752c-18.7344 18.6953 -28.9121 39.0908 -28.9121 64.6494c0 45.9072 37.4678 85.0439 85.0674 85.0439
c44.2461 0 79.9746 -32.3125 85.0674 -78.2666z" />
    <glyph glyph-name="quotesinglbase" unicode="&#x201a;" horiz-adv-x="237" 
d="M203.035 92.5186c11.9092 -122.465 -134.382 -178.605 -134.405 -178.621l-5.75879 14.1191c17.2764 20.2148 40.5938 51.4619 -1.04297 93.0752c-18.7109 18.6953 -28.9121 39.1143 -28.9121 64.6494c0 45.9307 37.4443 85.0674 85.0674 85.0674
c44.2227 0 79.959 -32.3359 85.0518 -78.29z" />
    <glyph glyph-name="quotedblleft" unicode="&#x201c;" horiz-adv-x="428" 
d="M173.763 728.914c-17.2686 -20.1914 -40.5869 -51.4375 1.06543 -93.0742c18.7344 -18.6953 28.9121 -39.1143 28.9121 -64.6494c0 -45.9307 -37.46 -85.0674 -85.0674 -85.0674c-44.2227 0 -79.959 32.3359 -85.0674 78.29
c-11.9092 122.488 134.383 178.62 134.383 178.62zM366.031 635.84c18.7344 -18.6953 28.9111 -39.0977 28.9111 -64.6484c0 -45.9307 -37.4443 -85.0674 -85.0439 -85.0674c-44.2461 0 -79.9824 32.3359 -85.0674 78.29c-11.9092 122.488 134.383 178.62 134.383 178.62
l5.77441 -14.1191c-17.2686 -20.2148 -40.5938 -51.4385 1.04297 -93.0752z" />
    <glyph glyph-name="quotedblright" unicode="&#x201d;" horiz-adv-x="428" 
d="M394.247 664.768c11.9092 -122.488 -134.397 -178.621 -134.397 -178.621l-5.78223 14.1191c17.2686 20.2148 40.5938 51.4619 -1.04297 93.083c-18.7344 18.6875 -28.9121 39.0908 -28.9121 64.6416c0 45.915 37.46 85.0439 85.0674 85.0439
c44.2461 0 79.959 -32.3125 85.0674 -78.2666zM117.953 743.033c44.2461 0 79.9834 -32.3135 85.0684 -78.2676c11.917 -122.465 -134.375 -178.62 -134.375 -178.62l-5.78223 14.1191c17.2764 20.2148 40.5938 51.4619 -1.04297 93.083
c-18.7344 18.6875 -28.9121 39.0908 -28.9121 64.6416c0 45.915 37.4443 85.0439 85.0439 85.0439z" />
    <glyph glyph-name="quotedblbase" unicode="&#x201e;" horiz-adv-x="428" 
d="M394.247 92.5186c11.9092 -122.465 -134.397 -178.605 -134.421 -178.621l-5.75879 14.1191c17.2686 20.2148 40.5938 51.4619 -1.04297 93.0752c-18.7344 18.6953 -28.9121 39.1143 -28.9121 64.6494c0 45.9307 37.46 85.0674 85.0674 85.0674
c44.2461 0 79.9746 -32.3359 85.0674 -78.29zM117.977 170.808c44.2227 0 79.96 -32.3369 85.0449 -78.291c11.917 -122.488 -134.375 -178.62 -134.375 -178.62l-5.78223 14.1191c17.2764 20.2148 40.5938 51.4619 -1.04297 93.0752
c-18.7344 18.6953 -28.9121 39.1143 -28.9121 64.6494c0 45.9307 37.4443 85.0674 85.0674 85.0674z" />
    <glyph glyph-name="dagger" unicode="&#x2020;" horiz-adv-x="498" 
d="M445.184 555.998h19.6113v-154.535l-19.6113 -0.0234375s-19.9639 32.2734 -63.6611 32.2734h-62.6426v-329.418c0 -67.9863 50.1689 -99.0684 50.1689 -99.0684v-30.5186h-240.394l-0.0234375 30.5186s50.1924 31.0586 50.1924 99.0449v329.441h-62.6426
c-43.6816 0 -63.6611 -32.25 -63.6611 -32.25h-19.6113v154.535h19.6113s19.9561 -32.2734 63.6611 -32.2734h62.6426v92.1816c0 67.9785 -50.1689 99.0605 -50.1689 99.0605v30.5186h240.394l0.0390625 -30.5186s-50.1846 -31.0586 -50.1846 -99.0371v-92.1816h62.6191
c43.6816 0 63.6611 32.25 63.6611 32.25z" />
    <glyph glyph-name="bullet" unicode="&#x2022;" horiz-adv-x="344" 
d="M171.874 233.114c-76.7461 0 -138.966 62.2197 -138.966 138.966c0 76.7539 62.2197 138.974 138.966 138.974c76.7539 0 138.974 -62.2197 138.974 -138.974c0 -76.7461 -62.2197 -138.966 -138.974 -138.966z" />
    <glyph glyph-name="ellipsis" unicode="&#x2026;" horiz-adv-x="787" 
d="M117.035 170.809c46.4551 0 84.1113 -37.6719 84.1113 -84.127s-37.6328 -84.127 -84.1113 -84.127c-46.4707 0 -84.127 37.6719 -84.127 84.127s37.6562 84.127 84.127 84.127zM393.432 170.809c46.4551 0 84.127 -37.6484 84.127 -84.127
s-37.6484 -84.127 -84.127 -84.127s-84.127 37.6719 -84.127 84.127s37.6719 84.127 84.127 84.127zM669.828 170.809c46.4551 0 84.127 -37.6484 84.127 -84.127s-37.6484 -84.127 -84.127 -84.127s-84.127 37.6719 -84.127 84.127s37.6484 84.127 84.127 84.127z" />
    <glyph glyph-name="perthousand" unicode="&#x2030;" horiz-adv-x="833" 
d="M439.072 409.024l17.5273 -37.1152l-56.7197 -37.1309l-108.33 -205.197c-35.9014 -67.9863 -2.12402 -99.0605 -2.12402 -99.0605l-16.1094 -30.5186h-240.409l16.0859 30.4951s66.5996 31.0586 102.485 99.0449l108.346 205.221l-17.5273 37.1309l56.7197 37.1309
l108.519 205.55c35.9014 67.9863 2.12402 99.0684 2.12402 99.0684l16.1094 30.5186h240.409l-16.0859 -30.542s-66.5996 -31.0586 -102.485 -99.0449zM195.302 545.633c-46.4707 0 -84.127 37.6562 -84.127 84.127c0 46.4785 37.6719 84.1348 84.127 84.1348
s84.127 -37.6797 84.127 -84.1348s-37.6719 -84.127 -84.127 -84.127zM503.596 198.773c46.4785 0 84.127 -37.6719 84.127 -84.127s-37.6484 -84.127 -84.127 -84.127s-84.127 37.6484 -84.127 84.127c0 46.4707 37.6719 84.127 84.127 84.127zM715.681 198.773
c46.4551 0 84.127 -37.6719 84.127 -84.127s-37.6719 -84.127 -84.127 -84.127s-84.127 37.6484 -84.127 84.127c0 46.4707 37.6719 84.127 84.127 84.127z" />
    <glyph glyph-name="guilsinglleft" unicode="&#x2039;" horiz-adv-x="383" 
d="M350.063 589.518v-148.525l-122.011 -92.7617l122.011 -92.7617v-148.525l-317.155 241.287z" />
    <glyph glyph-name="guilsinglright" unicode="&#x203a;" horiz-adv-x="383" 
d="M32.9082 589.518l317.155 -241.287l-317.155 -241.287v148.525l122.011 92.7617l-122.011 92.7617v148.525z" />
    <glyph glyph-name="Euro" unicode="&#x20ac;" horiz-adv-x="539" 
d="M487.761 531.779h-140.056v35.8154c0 30.6436 -20.293 46.0869 -60.8643 46.3145h-0.987305c-40.2578 0 -60.3867 -15.4355 -60.3867 -46.3145v-85.334h94.7676v-83.9238h-94.7676v-52.5664h94.7676v-83.916h-94.7676v-85.3418
c0 -30.8711 20.293 -46.3066 60.8721 -46.3066c40.9082 0 61.3662 15.4355 61.3662 46.3066v35.4229h140.056v-77.4121c0 -95.6455 -67.1484 -143.582 -201.421 -143.81c-133.943 0 -200.927 47.9365 -200.927 143.809v127.331h-52.5039v83.916h52.5039v52.5664h-52.5039
v83.9238h52.5039v127.684c0 95.6455 66.9834 143.456 200.927 143.456c134.272 0 201.421 -47.834 201.421 -143.455v-78.165z" />
    <glyph glyph-name="trademark" unicode="&#x2122;" horiz-adv-x="716" 
d="M683.493 364.402l0.0625 0.0166016v-16.1641h-127.621v16.1641s26.6787 15.623 26.6787 52.5664v190.35l-42.4902 -153.61h-58.5605l-42.6162 153.359v-190.115c0 -36.0654 26.6396 -52.5508 26.6396 -52.5508v-16.1875h-127.534v16.1875
s26.6162 16.4854 26.6162 52.5508v108.863l-19.6982 19.6982l19.6982 19.6904v109.059c0 36.0654 -26.6162 52.543 -26.6162 52.543v16.1875l137.548 -0.0234375l35.1885 -126.829l35.1963 126.829l137.509 0.0234375v-16.1641s-26.6396 -16.4854 -26.6396 -52.5508
v-109.074l19.6904 -19.6904l-19.6904 -19.6982v-108.887c0 -36.0654 26.6396 -52.543 26.6396 -52.543zM49.0957 743.011h260.835l16.1875 -100.816h-16.1875v0s-16.4775 26.6162 -52.5508 26.6162h-40.7354v-103.613l19.6904 -19.6904l-19.6904 -19.6904v-108.871
c0 -36.0654 26.6396 -52.543 26.6396 -52.543v-16.1875h-127.542v16.1875s26.6396 16.4775 26.6396 52.543v108.871l-19.6904 19.6904l19.6904 19.6904v103.613h-40.7432c-36.0654 0 -52.543 -26.6162 -52.543 -26.6162h-16.1875z" />
    </font>
</defs>
</svg>
